img image001 image001 image001 image001 image001 image001 image001 image001 image001 image001 image001 image001 image001 image001 image001

Planets Sun Sun Sun
Статистика раздачи
Автор: Nickolas3434 | Размер: 1.09 ГБ | Добавлен: 31 июл 2015
Раздают: 9    Качают: 9
Скачать торрент
Скачать торрент
Описание торрента

СообщениеДобавлено: 31 июл 2015 

Страна: СССР
Производство: Свердловская киностудия
Жанр: мелодрама
Год выпуска: 1948
Продолжительность: 01:08:59
Перевод: Не требуется
Cубтитры: нет
Оригинальная аудиодорожка: русский
Режиссер: Борис Барнет, Александр Мачерет
В ролях:
Татьяна Еремеева, Наталия Кутасина, Виктор Хохряков, Владимир Дорофеев, Николай Бадьев, Алексей Берёзкин, Гавриил Белов, Елена Вольская. Екатерина Савинова, Клавдия Хабарова...
Описание:
Деревенская девушка Нина Ермакова приезжает на одну из крупных новостроек страны и вскоре становится электросварщицей "Металлургстроя". Нина разрабатывает новый метод сварки, однако понимает, что ей необходимо учиться. Окончив институт, героиня едет в родной город продолжать строить гигантский комбинат в качестве инженера. Во время Великой Отечественной войны Ермакова руководит строительным участком Уралмашзавода. Вернувшись после войны на свой завод, она получает задание в кратчайшие сроки восстановить листопрокатный цех. Взяв в основу проекта скоростного строительства идею своего мужа, крупного инженера-строителя, погибшего на войне, Нина настойчиво идет к цели...





Источник: DVB с прорезанными итальянскими сабами, к сожалению это единственный исходник в сети, .
Качество видео: SATRip
Формат видео: AVI
Видео: 672x496 (4:3), 25 fps, XviD ~ 2061 kbps avg, 0.247 bit/pixel
Аудио: 48 kHz, Dolby Digital AC3 2.0, 192 kbps
Раздача от:
Общее
Полное имя : Stranicy.zhizni.1948.SATRip_[New-team]_by_AVP_Studio.avi
Формат : AVI
Формат/Информация : Audio Video Interleave
Размер файла : 1,09 Гбайт
Продолжительность : 1 ч. 8 м.
Общий поток : 2263 Кбит/сек
Программа кодирования : VirtualDubMod 1.5.10.3 | www.virtualdub-fr.org || (build 2550/release)
Библиотека кодирования : VirtualDubMod build 2550/release
Видео
Идентификатор : 0
Формат : MPEG-4 Visual
Профиль формата : Advanced Simple@L5
Параметр BVOP формата : 1
Параметр QPel формата : Нет
Параметр GMC формата : Без точки перехода
Параметр матрицы формата : Выборочная
Идентификатор кодека : XVID
Идентификатор кодека/Подсказка : XviD
Продолжительность : 1 ч. 8 м.
Битрейт : 2061 Кбит/сек
Ширина : 672 пикселя
Высота : 496 пикселей
Соотношение сторон : 4:3
Частота кадров : 25,000 кадров/сек
Цветовое пространство : YUV
Субдискретизация насыщенности : 4:2:0
Битовая глубина : 8 бит
Тип развёртки : Прогрессивная
Метод сжатия : С потерями
Бит/(Пиксели*Кадры) : 0.247
Размер потока : 1017 Мбайт (91%)
Библиотека кодирования : XviD 73
Аудио
Идентификатор : 1
Формат : AC-3
Формат/Информация : Audio Coding 3
Расширение режима : CM (complete main)
Параметр Endianness формата : Big
Идентификатор кодека : 2000
Продолжительность : 1 ч. 8 м.
Вид битрейта : Постоянный
Битрейт : 192 Кбит/сек
Каналы : 2 канала
Расположение каналов : Front: L R
Частота : 48,0 КГц
Метод сжатия : С потерями
Размер потока : 94,7 Мбайт (8%)
Выравнивание : Разделение по промежуткам
Продолжительность промежутка : 40 мс. (1,00 видеокадр)
Время предзагрузки промежутка : 500 мс





   Похожие торренты   Торрент   Размер 
В этой теме нет новых непрочитанных сообщений. Страницы жизни (1948) SATRip от New-Team

8 | 7

745.71 МБ

В этой теме нет новых непрочитанных сообщений. Страницы жизни (1948) SATRip-AVC от New-Team

22 | 3

1.09 ГБ

В этой теме нет новых непрочитанных сообщений. Неизвестные страницы из жизни разведчика (1990) DVDRip

157 | 17

1.37 ГБ

В этой теме нет новых непрочитанных сообщений. Карандаш на льду (1948) SATRip-AVC от New-Team

135 | 8

372.13 МБ

В этой теме нет новых непрочитанных сообщений. Карандаш на льду (1948) SATRip от New-Team

74 | 7

372.45 МБ

В этой теме нет новых непрочитанных сообщений. Две жизни (1956) SATRip от New-Team

32 | 2

745.21 МБ

В этой теме нет новых непрочитанных сообщений. Две жизни (1956) SATRip-AVC от New-Team

62 | 15

744.85 МБ




Вы не можете начинать темы
Вы не можете отвечать на сообщения
Вы не можете редактировать свои сообщения
Вы не можете удалять свои сообщения
Вы не можете добавлять вложения

Перейти:  
Для Мосгорсуда, Роскомнадзора и рекламодателей: mosgorsud-torrent[собачка]yandex.ru
 Вход
ppkBB3cker v.2 © 2008-2014 @ PPK
[ Time : 0.048s | 15 Queries | GZIP : Off ]

Торрент трекер RUTOR.IN, Не можете зайти на rutor.org? Какой новый адрес рутор? Какое зеркало рутор? Не работает rutor.org и зеркала? Тогда наш торрент специально для вас. Rutor.in неофициальное зеркало rutor. В случае если у Вас заблокирован rutor или вдруг Вы не можете на него зайти, то Вы без труда сможете скачать бесплатно и без рекламы последние новинки кино, игр, сериалов и прочего у нас, на Rutor.in. Не нужно использовать прокси, чтобы зайти на рутор, достаточно воспользоваться нашим ресурсом. Все новые фильмы, игры, сериалы, книги и музыка за 2013 и 2014 годы через торрент бесплатно. Скачивайте фильмы в хорошем качестве, игры для пк, xbox, playstation без регистрации. У нас вы найдете новые Зарубежные сериалы и Русские сериалы 2013, 2014, 2015 годов. Оставайтесь с нами, качайте любимые фильмы, игры, сериалы, книги и музыку.