img image001 image001 image001 image001 image001 image001 image001 image001 image001 image001 image001 image001 image001 image001 image001

Planets Sun Sun Sun
Статистика раздачи
Автор: Nickolas3434 | Размер: 1.4 ГБ | Добавлен: 31 июл 2015
Раздают: 24    Качают: 15
Скачать торрент
Скачать торрент
Описание торрента

СообщениеДобавлено: 31 июл 2015 


Информация о фильме
Название: Год теленка
Год выхода: 1986
Жанр: Лирическая комедия
Режиссер: Владимир Попков
В ролях: Ирина Муравьева, Владимир Меньшов, Екатерина Васильева, Валентин Гафт, Лев Дуров, Роман Андреев, Денис Андреев, Евгений Весник, Людмила Кузьмина, Елена Копыл, В.Белый, Владимир Волков, Виктор Полищук
О фильме: Молодая энергичная Людмила Петровна Никитина, работавшая дояркой на ферме, решила коренным образом изменить свою жизнь. Устроившись заведующей сельским мебельным магазином, она продала корову, свиней, овец и даже пригласила сыновьям учителя музыки из города — скрипача Валериана Сергеевича.Ее муж Феодосий, колхозный плотник, не в состоянии образумить жену, но в тоже время он не намерен мириться с новыми порядками. К удивлению Людмилы Петровны под влияние Феодосия попадает и учитель музыки, почувствовавший вкус к деревенской жизни. Однажды, прихватив детей, мужчины сбежали из дома. С трудом удалось Людмиле Петровне восстановить нарушенный семейный покой, а жене Валериана Сергеевича вернуть домой своего супруга.
Страна: СССР
Продолжительность: 01:17:06
Перевод: не требуется
Файл
Кодек: MKV
Качество: SATRip-AVC
Видео: MPEG-4 AVC, 2400 Кбит/с, 696x396@760x396
Звук: AC3, 2 ch, 192 Кбит/с


Общее
Уникальный идентификатор : 188089004206678666184412472222700580548 (0x8D809FE1EDF9754FADF9E770ABE8AEC4)
Полное имя : D:Год телёнка_1986-SATRip-AVC.mkv
Формат : Matroska
Версия формата : Version 2
Размер файла : 1,40 Гбайт
Продолжительность : 1 ч. 17 м.
Общий поток : 2594 Кбит/сек
Дата кодирования : UTC 2015-07-31 11:06:30
Программа кодирования : mkvmerge v5.8.0 ('No Sleep / Pillow') built on Sep 2 2012 15:37:04
Библиотека кодирования : libebml v1.2.3 + libmatroska v1.3.0
Видео
Идентификатор : 1
Формат : AVC
Формат/Информация : Advanced Video Codec
Профиль формата : High@L4.1
Параметр CABAC формата : Да
Параметр ReFrames формата : 14 кадров
Идентификатор кодека : V_MPEG4/ISO/AVC
Продолжительность : 1 ч. 17 м.
Битрейт : 2400 Кбит/сек
Ширина : 696 пикселей
Высота : 396 пикселей
Соотношение сторон : 1,919
Соотношение сторон в оригинале : 1,917
Режим частоты кадров : Постоянный
Частота кадров : 25,000 кадров/сек
Цветовое пространство : YUV
Субдискретизация насыщенности : 4:2:0
Битовая глубина : 8 бит
Тип развёртки : Прогрессивная
Бит/(Пиксели*Кадры) : 0.348
Размер потока : 1,27 Гбайт (91%)
Библиотека кодирования : x264 core 146 r2538 121396c
Настройки программы : cabac=1 / ref=14 / deblock=1:-2:-2 / analyse=0x3:0x133 / me=umh / subme=10 / psy=1 / psy_rd=1.05:0.15 / mixed_ref=1 / me_range=32 / chroma_me=1 / trellis=2 / 8x8dct=1 / cqm=0 / deadzone=21,11 / fast_pskip=0 / chroma_qp_offset=-3 / threads=12 / lookahead_threads=2 / sliced_threads=0 / nr=0 / decimate=0 / interlaced=0 / bluray_compat=0 / constrained_intra=0 / bframes=9 / b_pyramid=2 / b_adapt=2 / b_bias=0 / direct=3 / weightb=1 / open_gop=0 / weightp=2 / keyint=250 / keyint_min=25 / scenecut=40 / intra_refresh=0 / rc=2pass / mbtree=0 / bitrate=2400 / ratetol=1.0 / qcomp=0.65 / qpmin=0 / qpmax=69 / qpstep=4 / cplxblur=20.0 / qblur=0.5 / ip_ratio=1.40 / pb_ratio=1.30 / aq=1:1.00
Язык : English
Default : Да
Forced : Нет
Цветовой диапазон : Limited
Основные цвета : BT.601 PAL
Характеристики трансфера : BT.470 System B, BT.470 System G
Коэффициенты матрицы : BT.601
Аудио
Идентификатор : 2
Формат : AC-3
Формат/Информация : Audio Coding 3
Расширение режима : CM (complete main)
Параметр Endianness формата : Big
Идентификатор кодека : A_AC3
Продолжительность : 1 ч. 17 м.
Вид битрейта : Постоянный
Битрейт : 192 Кбит/сек
Каналы : 2 канала
Расположение каналов : Front: L R
Частота : 48,0 КГц
Битовая глубина : 16 бит
Метод сжатия : С потерями
Размер потока : 106 Мбайт (7%)
Язык : Russian
Default : Да
Forced : Нет

Релиз от:
Автор релиза:



   Похожие торренты   Торрент   Размер 
В этой теме нет новых непрочитанных сообщений. Год теленка (1986) DVDRip от Кинорадиомагия

141 | 17

1.38 ГБ

В этой теме нет новых непрочитанных сообщений. Лицом к лицу (1986) SATRip-AVC от ExKinoRay

156 | 45

1.84 ГБ

В этой теме нет новых непрочитанных сообщений. Без срока давности (1986) SATRip-AVC от ExKinoRay

39 | 9

1.46 ГБ

В этой теме нет новых непрочитанных сообщений. Анна Павлова (1986) SATRip-AVC от ExKinoRay | Телеверсия

14 | 2

3.82 ГБ

В этой теме нет новых непрочитанных сообщений. Секретный фарватер [01-04 из 04 серий] (1986) SATRip-AVC от ExKinoRay

54 | 16

4.34 ГБ

В этой теме нет новых непрочитанных сообщений. Магия Дэвида Копперфилда - 7 фильмов (1986-2001) SATRip от ExKinoRay.TV

12 | 3

4.48 ГБ

В этой теме нет новых непрочитанных сообщений. Была не была (1986) SATRip-AVC от ExKinoRay

86 | 14

2.2 ГБ




Вы не можете начинать темы
Вы не можете отвечать на сообщения
Вы не можете редактировать свои сообщения
Вы не можете удалять свои сообщения
Вы не можете добавлять вложения

Перейти:  
Для Мосгорсуда, Роскомнадзора и рекламодателей: mosgorsud-torrent[собачка]yandex.ru
 Вход
ppkBB3cker v.2 © 2008-2014 @ PPK
[ Time : 0.697s | 16 Queries | GZIP : Off ]

cron