img image001 image001 image001 image001 image001 image001 image001 image001 image001 image001 image001 image001 image001 image001 image001

Planets Sun Sun Sun
Статистика раздачи
Автор: Nickolas3434 | Размер: 1.22 ГБ | Добавлен: 02 авг 2015
Раздают: 229    Качают: 22
Скачать торрент
Скачать торрент
Описание торрента

СообщениеДобавлено: 02 авг 2015 


Информация о фильме
Название: Дорога
Год выхода: 1955
Жанр: Приключения, детектив
Режиссер: Александр Столпер
В ролях: Андрей Попов, Виталий Доронин, Николай Гриценко, Тамара Логинова, Лев Свердлин, Виктор Авдюшко, Евгений Матвеев, Евгений Леонов, Владимир Кенигсон, Борис Битюков, Николай Сергеев, Тахир Сабиров
О фильме: На одной из автостанций горной дороги Дальнего Востока из-за снегопадов застряли десятки машин с пассажирами и срочным грузом. Под вечер на станцию прибывают ещё два пассажира — капитан госбезопасности и «иностранный турист». Утром, несмотря на пургу, автоколонна направляется на штурм перевала. Никто не подозревает, что капитан сопровождает диверсанта, назначившего встречу на перевале.
Страна: СССР, Мосфильм
Продолжительность: 01:36:40
Перевод: не требуется
Файл
Кодек: MKV
Качество: SATRip-AVC
Видео: MPEG-4 AVC, ~1585 Кбит/с, 698x574@744x574
Звук: AC3, 2 ch, 192 Кбит/с



raw [info]: 698x574p 16:15 @ 25/1 fps (cfr)
x264 [info]: using SAR=16/15
x264 [info]: using cpu capabilities: MMX2 SSE2Fast SSSE3 SSE4.2 AVX
x264 [info]: profile High, level 4.1
x264 [info]: frame I:48 Avg QP:17.53 size: 45294
x264 [info]: frame P:482 Avg QP:18.76 size: 19834
x264 [info]: frame B:1984 Avg QP:20.53 size: 5046
===================================================================================================
Общее
Уникальный идентификатор : 192775081318507466360693242688033495667 (0x910721527292BA5AA35E780A323F9A73)
Полное имя : D:Дорога_1955-SATRip-AVC.mkv
Формат : Matroska
Версия формата : Version 2
Размер файла : 1,22 Гбайт
Продолжительность : 1 ч. 36 м.
Общий поток : 1813 Кбит/сек
Дата кодирования : UTC 2015-08-01 01:27:24
Программа кодирования : mkvmerge v5.8.0 ('No Sleep / Pillow') built on Sep 2 2012 15:37:04
Библиотека кодирования : libebml v1.2.3 + libmatroska v1.3.0
Видео
Идентификатор : 1
Формат : AVC
Формат/Информация : Advanced Video Codec
Профиль формата : High@L4.1
Параметр CABAC формата : Да
Параметр ReFrames формата : 14 кадров
Идентификатор кодека : V_MPEG4/ISO/AVC
Продолжительность : 1 ч. 36 м.
Битрейт : 1585 Кбит/сек
Ширина : 698 пикселей
Высота : 574 пикселя
Соотношение сторон : 1,296
Соотношение сторон в оригинале : 1,297
Режим частоты кадров : Постоянный
Частота кадров : 25,000 кадров/сек
Цветовое пространство : YUV
Субдискретизация насыщенности : 4:2:0
Битовая глубина : 8 бит
Тип развёртки : Прогрессивная
Бит/(Пиксели*Кадры) : 0.158
Размер потока : 1,07 Гбайт (87%)
Библиотека кодирования : x264 core 146 r2538 121396c
Настройки программы : cabac=1 / ref=14 / deblock=1:-2:-2 / analyse=0x3:0x133 / me=umh / subme=10 / psy=1 / psy_rd=1.05:0.13 / mixed_ref=1 / me_range=32 / chroma_me=1 / trellis=2 / 8x8dct=1 / cqm=0 / deadzone=21,11 / fast_pskip=1 / chroma_qp_offset=-3 / threads=12 / lookahead_threads=3 / sliced_threads=0 / nr=0 / decimate=1 / interlaced=0 / bluray_compat=0 / constrained_intra=0 / bframes=10 / b_pyramid=2 / b_adapt=2 / b_bias=0 / direct=1 / weightb=1 / open_gop=0 / weightp=2 / keyint=250 / keyint_min=25 / scenecut=40 / intra_refresh=0 / rc=crf / mbtree=0 / crf=18.5 / qcomp=0.65 / qpmin=0 / qpmax=69 / qpstep=4 / ip_ratio=1.40 / pb_ratio=1.30 / aq=1:1.00
Язык : English
Default : Да
Forced : Нет
Цветовой диапазон : Limited
Основные цвета : BT.601 PAL
Характеристики трансфера : BT.470 System B, BT.470 System G
Коэффициенты матрицы : BT.601
Аудио
Идентификатор : 2
Формат : AC-3
Формат/Информация : Audio Coding 3
Расширение режима : CM (complete main)
Параметр Endianness формата : Big
Идентификатор кодека : A_AC3
Продолжительность : 1 ч. 36 м.
Вид битрейта : Постоянный
Битрейт : 192 Кбит/сек
Каналы : 2 канала
Расположение каналов : Front: L R
Частота : 48,0 КГц
Битовая глубина : 16 бит
Метод сжатия : С потерями
Задержка видео : 11 мс.
Размер потока : 133 Мбайт (11%)
Язык : Russian
Default : Да
Forced

Релиз от:
Автор релиза:



   Похожие торренты   Торрент   Размер 
В этой теме нет новых непрочитанных сообщений. Дорога (1955) DVDRip

169 | 39

1.47 ГБ

В этой теме нет новых непрочитанных сообщений. Дорога, дорога домой / На заднем сидении / The Way Way Back (2013) BDRip от ExKinoRay | P2, L, L1

110 | 49

2.35 ГБ

В этой теме нет новых непрочитанных сообщений. Чужая родня (1955) DVDRip от ExKinoRay

255 | 21

1.37 ГБ

В этой теме нет новых непрочитанных сообщений. Мунфлит / Moonfleet (1955) DVDRip от ExKinoRay

3 | 3

1.01 ГБ

В этой теме нет новых непрочитанных сообщений. Педагогическая поэма (1955) DVDRip от ExKinoRay

53 | 15

1.46 ГБ

В этой теме нет новых непрочитанных сообщений. Мистер Аркадин / Mr. Arkadin (1955) DVDRip от ExKinoRay

7 | 7

1.37 ГБ

В этой теме нет новых непрочитанных сообщений. Высокие мужчины / The Tall Men (1955) DVDRip от ExKinoRay

43 | 2

2.07 ГБ




Вы не можете начинать темы
Вы не можете отвечать на сообщения
Вы не можете редактировать свои сообщения
Вы не можете удалять свои сообщения
Вы не можете добавлять вложения

Перейти:  
Для Мосгорсуда, Роскомнадзора и рекламодателей: mosgorsud-torrent[собачка]yandex.ru
 Вход
ppkBB3cker v.2 © 2008-2014 @ PPK
[ Time : 0.625s | 15 Queries | GZIP : Off ]

Торрент трекер RUTOR.IN, Не можете зайти на rutor.org? Какой новый адрес рутор? Какое зеркало рутор? Не работает rutor.org и зеркала? Тогда наш торрент специально для вас. Rutor.in неофициальное зеркало rutor. В случае если у Вас заблокирован rutor или вдруг Вы не можете на него зайти, то Вы без труда сможете скачать бесплатно и без рекламы последние новинки кино, игр, сериалов и прочего у нас, на Rutor.in. Не нужно использовать прокси, чтобы зайти на рутор, достаточно воспользоваться нашим ресурсом. Все новые фильмы, игры, сериалы, книги и музыка за 2013 и 2014 годы через торрент бесплатно. Скачивайте фильмы в хорошем качестве, игры для пк, xbox, playstation без регистрации. У нас вы найдете новые Зарубежные сериалы и Русские сериалы 2013, 2014, 2015 годов. Оставайтесь с нами, качайте любимые фильмы, игры, сериалы, книги и музыку.
cron