img image001 image001 image001 image001 image001 image001 image001 image001 image001 image001 image001 image001 image001 image001 image001

Planets Sun Sun Sun
Статистика раздачи
Автор: Nickolas3434 | Размер: 2.18 ГБ | Добавлен: 02 авг 2015
Раздают: 35    Качают: 1
Скачать торрент
Скачать торрент
Описание торрента

СообщениеДобавлено: 02 авг 2015 

Страна: СССР
Производство: Студия Горького
Жанр: драма, военный
Год выпуска: 1948
Продолжительность: 02:39:59 (01:23:24 + 01:16:35)
Перевод: Не требуется
Cубтитры: нет
Оригинальная аудиодорожка: русский
Режиссер: Сергей Герасимов
В ролях: Владимир Иванов, Инна Макарова, Сергей Гурзо, Борис Битюков, Нонна Мордюкова, Сергей Бондарчук, Глеб Романов, Людмила Шагалова, Вячеслав Тихонов, Караман Мгеладзе, Анатолий Чемодуров, Георгий Юматов, Евгений Моргунов, Клара Лучко, Людмила Иванова, Муза Крепкогорская, Тамара Носова, Виктор Авдюшко, Георгий Шаповалов, Юрий Егоров, Виктор Хохряков, Евгений Тетерин, Андрей Файт, Тамара Макарова, Александра Панова, Аза Калашникова, Мария Яроцкая, Лев Фенин, Александра Денисова, Владимир Уральский, Зинаида Воркуль, Александра Харитонова, Сергей Комаров, Григорий Шпигель, Василий Бокарев, Алексей Розанов...
Описание: Фильм рассказывает о событиях 1942, происшедших в оккупированном фашистами Краснодоне. Вчерашние школьники создают подпольную организацию и начинают свою борьбу: распространяют листовки, освобождают группу пленных красноармейцев, сжигают немецкую биржу, спасая соотечественников от фашистского рабства, в день годовщины Октября развешивают красные флаги. В их действиях, как и в их детском бесстрашии многое идет от игры: ведь еще вчера кое-кто был признанным хулиганом, кое-кто вовсе не помышлял о подвигах, кое-кто не желал выслушивать наставления, подчиняться дисциплине. Но именно благодаря их изобретательности, отчаянной смелости и дерзости удавались самые опасные и самые ошеломляющие акции.





Источник: DVD9 R5
Качество видео: DVDRip
Формат видео: AVI
Видео: 688x512 (4:3), 25 fps, XviD ~ 1748 kbps avg, 0.199 bit/pixel
Аудио: 48 kHz, Dolby Digital AC3 2.0, 192 kbps
Раздача от:
Полное имя : Molodaya.Gvardia.1948.DVDRip_[New-team]_by_AVP_Studio\01.avi
Формат : AVI
Формат/Информация : Audio Video Interleave
Размер файла : 1,14 Гбайт
Продолжительность : 1 ч. 23 м.
Общий поток : 1950 Кбит/сек
Программа кодирования : VirtualDubMod 1.5.10.3 | www.virtualdub-fr.org || (build 2550/release)
Библиотека кодирования : VirtualDubMod build 2550/release
Видео
Идентификатор : 0
Формат : MPEG-4 Visual
Профиль формата : Advanced Simple@L5
Параметр BVOP формата : 1
Параметр QPel формата : Нет
Параметр GMC формата : Без точки перехода
Параметр матрицы формата : Выборочная
Идентификатор кодека : XVID
Идентификатор кодека/Подсказка : XviD
Продолжительность : 1 ч. 23 м.
Битрейт : 1748 Кбит/сек
Ширина : 688 пикселей
Высота : 512 пикселей
Соотношение сторон : 4:3
Частота кадров : 25,000 кадров/сек
Цветовое пространство : YUV
Субдискретизация насыщенности : 4:2:0
Битовая глубина : 8 бит
Тип развёртки : Прогрессивная
Метод сжатия : С потерями
Бит/(Пиксели*Кадры) : 0.199
Размер потока : 1,02 Гбайт (90%)
Библиотека кодирования : XviD 73
Аудио
Идентификатор : 1
Формат : AC-3
Формат/Информация : Audio Coding 3
Расширение режима : CM (complete main)
Параметр Endianness формата : Big
Идентификатор кодека : 2000
Продолжительность : 1 ч. 23 м.
Вид битрейта : Постоянный
Битрейт : 192 Кбит/сек
Каналы : 2 канала
Расположение каналов : Front: L R
Частота : 48,0 КГц
Метод сжатия : С потерями
Размер потока : 115 Мбайт (10%)
Выравнивание : Разделение по промежуткам
Продолжительность промежутка : 40 мс. (1,00 видеокадр)
Время предзагрузки промежутка : 500 мс





   Похожие торренты   Торрент   Размер 
В этой теме нет новых непрочитанных сообщений. Молодая гвардия (1948) DVDRip от New-Team

82 | 9

1.46 ГБ

В этой теме нет новых непрочитанных сообщений. Молодая гвардия (1948) DVDRip-AVC от New-Team

33 | 3

2.18 ГБ

В этой теме нет новых непрочитанных сообщений. Молодая гвардия (1948) DVDRip

221 | 13

2.74 ГБ

В этой теме нет новых непрочитанных сообщений. Молодая гвардия (1948) DVDRip от Alekxandr48

153 | 10

1.37 ГБ

В этой теме нет новых непрочитанных сообщений. Молодая гвардия [01-02 из 12] (2015) HDTVRip-AVC

44 | 6

1.36 ГБ

В этой теме нет новых непрочитанных сообщений. Молодая гвардия [01 из 12] (2015) WEB-DLRip

38 | 27

4.69 ГБ

В этой теме нет новых непрочитанных сообщений. Молодая гвардия [01-09 из 12] (2015) WEBRip

534 | 168

5.32 ГБ




Вы не можете начинать темы
Вы не можете отвечать на сообщения
Вы не можете редактировать свои сообщения
Вы не можете удалять свои сообщения
Вы не можете добавлять вложения

Перейти:  
Для Мосгорсуда, Роскомнадзора и рекламодателей: mosgorsud-torrent[собачка]yandex.ru
 Вход
ppkBB3cker v.2 © 2008-2014 @ PPK
[ Time : 0.044s | 16 Queries | GZIP : Off ]

cron