img image001 image001 image001 image001 image001 image001 image001 image001 image001 image001 image001 image001 image001 image001 image001

Planets Sun Sun Sun
Статистика раздачи
Автор: Nickolas3434 | Размер: 748.49 МБ | Добавлен: 03 авг 2015
Раздают: 127    Качают: 26
Скачать торрент
Скачать торрент
Описание торрента

СообщениеДобавлено: 03 авг 2015 


Информация о фильме
Название: Белый тигр
Год выхода: 2012
Жанр: Военный, мистика
Режиссёр: Карен Шахназаров
В ролях: Алексей Вертков, Виталий Кищенко, Валерий Гришко, Александр Вахов, Дмитрий Быковский-Ромашов, Герасим Архипов, Виталий Дорджиев, Владимир Ильин, Мария Шашлова, Карл Кранцковски, Клаус Грюнберг, Кристиан Редль, Вилмар Бири, Майкл Шэнкс, Юрий Киршев, Александр Ермаков, Сергей Власов, Андрей Муравьёв, Анастасия Курзина, Андрей Мясников, Леонид Орлов, Дмитрий Калязин
О фильме: Фильм рассказывает об неком немецком танке, который появлялся на поле боя внезапно из облака дыма и пыли, расстреливал все и так же внезапно уходил. Этот танк назывался "Белый Тигр". Он был неуязвим и его очень сильно боялись из-за его внезапности. Наши военные инженеры решают создать особый танк Т-34, чтобы уничтожить эту чудо-машину...

Страна: Россия
Студия: Первый канал, Мосфильм
Продолжительность: 01:48:43
Перевод: Не требуется (оригинальный)
Файл
Формат: avi
Качество: BDRip (BDRemux)
Видео: XviD, 656х352, 23.976fps, 825kbps
Аудио: MPEG Layer 3, 2ch, 48000Hz, 128kbps

General
Complete name : Belyi.Tigr.2012.O.BDRip.700.MediaClub.CurHaJI.avi
Format : AVI
Format/Info : Audio Video Interleave
File size : 748 MiB
Duration : 1h 48mn
Overall bit rate : 963 Kbps
Movie name : Belyi.Tigr.2012.O.BDRip.700.MediaClub.CurHaJI
Writing application : Lavf53.13.0
Writing library : VirtualDub build 35491/release
Video
ID : 0
Format : MPEG-4 Visual
Format profile : Advanced Simple@L5
Format settings, BVOP : 2
Format settings, QPel : No
Format settings, GMC : No warppoints
Format settings, Matrix : Custom
Codec ID : XVID
Codec ID/Hint : XviD
Duration : 1h 48mn
Bit rate : 825 Kbps
Width : 656 pixels
Height : 352 pixels
Display aspect ratio : 1.85:1
Frame rate : 23.976 fps
Color space : YUV
Chroma subsampling : 4:2:0
Bit depth : 8 bits
Scan type : Progressive
Compression mode : Lossy
Bits/(Pixel*Frame) : 0.149
Stream size : 642 MiB (86%)
Writing library : XviD 64
Audio
ID : 1
Format : MPEG Audio
Format version : Version 1
Format profile : Layer 3
Codec ID : 55
Codec ID/Hint : MP3
Duration : 1h 48mn
Bit rate mode : Constant
Bit rate : 128 Kbps
Channel(s) : 2 channels
Sampling rate : 48.0 KHz
Compression mode : Lossy
Stream size : 99.5 MiB (13%)
Alignment : Split accross interleaves
Interleave, duration : 42 ms (1.00 video frame)
Interleave, preload duration : 500 ms
Writing library : L3.99r
Encoding settings : -m s -V 4 -q 2 -lowpass 17 -b 128


Релиз от:



   Похожие торренты   Торрент   Размер 
В этой теме нет новых непрочитанных сообщений. Белый Тигр (2012) BDRip | Лицензия

421 | 19

1.37 ГБ

В этой теме нет новых непрочитанных сообщений. Белый тигр (2012) BDRip от ENGINEER

235 | 16

1.46 ГБ

В этой теме нет новых непрочитанных сообщений. Белый тигр (2012) BDRip от HQ-ViDEO

99 | 8

2.04 ГБ

В этой теме нет новых непрочитанных сообщений. Белый тигр (2012) [GER] BDRip от HQ-ViDEO

363 | 26

2.19 ГБ

В этой теме нет новых непрочитанных сообщений. Белый тигр (2012) BDRip 1080p

5 | 8

9.19 ГБ

В этой теме нет новых непрочитанных сообщений. Белый тигр (2012) BDRip-AVC от R.G. AVI | AVC | Лицензия

103 | 5

2.18 ГБ

В этой теме нет новых непрочитанных сообщений. Белый тигр (2012) BDRip 720p

56 | 20

5.04 ГБ




Вы не можете начинать темы
Вы не можете отвечать на сообщения
Вы не можете редактировать свои сообщения
Вы не можете удалять свои сообщения
Вы не можете добавлять вложения

Перейти:  
Для Мосгорсуда, Роскомнадзора и рекламодателей: mosgorsud-torrent[собачка]yandex.ru
 Вход
ppkBB3cker v.2 © 2008-2014 @ PPK
[ Time : 0.028s | 14 Queries | GZIP : Off ]

Торрент трекер RUTOR.IN, Не можете зайти на rutor.org? Какой новый адрес рутор? Какое зеркало рутор? Не работает rutor.org и зеркала? Тогда наш торрент специально для вас. Rutor.in неофициальное зеркало rutor. В случае если у Вас заблокирован rutor или вдруг Вы не можете на него зайти, то Вы без труда сможете скачать бесплатно и без рекламы последние новинки кино, игр, сериалов и прочего у нас, на Rutor.in. Не нужно использовать прокси, чтобы зайти на рутор, достаточно воспользоваться нашим ресурсом. Все новые фильмы, игры, сериалы, книги и музыка за 2013 и 2014 годы через торрент бесплатно. Скачивайте фильмы в хорошем качестве, игры для пк, xbox, playstation без регистрации. У нас вы найдете новые Зарубежные сериалы и Русские сериалы 2013, 2014, 2015 годов. Оставайтесь с нами, качайте любимые фильмы, игры, сериалы, книги и музыку.