img image001 image001 image001 image001 image001 image001 image001 image001 image001 image001 image001 image001 image001 image001 image001

Planets Sun Sun Sun
Статистика раздачи
Автор: Nickolas3434 | Размер: 2.67 ГБ | Добавлен: 04 авг 2015, 14:23
Раздают: 267    Качают: 20
Скачать торрент
Скачать торрент
Описание торрента

СообщениеДобавлено: 04 авг 2015, 14:23 


Информация о фильме
Название: Демидовы
Год выхода: 1983
Жанр: Биография, исторический
Режиссер: Ярополк Лапшин
В ролях: Евгений Евстигнеев, Вадим Спиридонов, Александр Лазарев, Леонид Куравлёв, Михаил Козаков, Татьяна Ташкова, Любовь Полехина, Людмила Чурсина, Лидия Федосеева-Шукшина, Валерий Золотухин, Николай Скоробогатов, Юрий Назаров, Михаил Зимин, Василий Корзун, Владимир Балашов, Юрий Саранцев, Олег Видов, Всеволод Ларионов, Александр Ермаков, Николай Мерзликин, Лев Борисов, Михаил Бочаров, Анатолий Азо, Николай Бадьев, Инна Варшавская, Михаил Васильев, Евгений Гвоздев, Надежда Горшкова, Владимир Емельянов, Юрий Ершов, Игорь Ефимов, Леонид Захожаев, Валерий Козинец, Станислав Соколов, Вера Титова, Нина Титова, Любовь Тищенко, Павел Федосеев
О фильме: Историческая сага о династии первых промышленников в России. В основе сюжета первой серии лежит история взаимоотношений Демидовых с Петром I. В короткий срок по указанию Петра Акинфий Демидов наладил производство чугуна, пушек, что позволило России одержать ряд исторических побед. Действие второй серии развивается в период царствования Анны Иоанновны, когда Акинфий Демидов стал полновластным хозяином на Урале и сумел противопоставить себя жестокому и хитрому правителю Бирону.
Страна: СССР
Продолжительность: 02:27:20
Перевод: не требуется
Файл
Кодек: MKV
Качество: DVDRip-AVC
Видео: MPEG-4 AVC, 2400 Кбит/с, 698x572@744x572
Звук: AC3, 2 ch, 192 Кбит/с




Общее
Уникальный идентификатор : 214232219043905484298517221745828871183 (0xA12B9FE3E13423AC9C9FBFC7A024BC0F)
Полное имя : D:Демидовы_1983-DVDRip-AVC.mkv
Формат : Matroska
Версия формата : Version 2
Размер файла : 2,67 Гбайт
Продолжительность : 2 ч. 27 м.
Общий поток : 2594 Кбит/сек
Дата кодирования : UTC 2015-08-02 16:55:49
Программа кодирования : mkvmerge v5.8.0 ('No Sleep / Pillow') built on Sep 2 2012 15:37:04
Библиотека кодирования : libebml v1.2.3 + libmatroska v1.3.0
Видео
Идентификатор : 1
Формат : AVC
Формат/Информация : Advanced Video Codec
Профиль формата : High@L4.1
Параметр CABAC формата : Да
Параметр ReFrames формата : 13 кадров
Идентификатор кодека : V_MPEG4/ISO/AVC
Продолжительность : 2 ч. 27 м.
Битрейт : 2400 Кбит/сек
Ширина : 698 пикселей
Высота : 572 пикселя
Соотношение сторон : 4:3
Соотношение сторон в оригинале : 4:3
Режим частоты кадров : Постоянный
Частота кадров : 25,000 кадров/сек
Цветовое пространство : YUV
Субдискретизация насыщенности : 4:2:0
Битовая глубина : 8 бит
Тип развёртки : Прогрессивная
Бит/(Пиксели*Кадры) : 0.240
Размер потока : 2,42 Гбайт (91%)
Библиотека кодирования : x264 core 146 r2538 121396c
Настройки программы : cabac=1 / ref=13 / deblock=1:-2:-2 / analyse=0x3:0x133 / me=umh / subme=10 / psy=1 / psy_rd=1.05:0.07 / mixed_ref=1 / me_range=32 / chroma_me=1 / trellis=2 / 8x8dct=1 / cqm=0 / deadzone=21,11 / fast_pskip=0 / chroma_qp_offset=-3 / threads=12 / lookahead_threads=2 / sliced_threads=0 / nr=0 / decimate=0 / interlaced=0 / bluray_compat=0 / constrained_intra=0 / bframes=8 / b_pyramid=2 / b_adapt=2 / b_bias=0 / direct=3 / weightb=1 / open_gop=0 / weightp=2 / keyint=250 / keyint_min=25 / scenecut=40 / intra_refresh=0 / rc=2pass / mbtree=0 / bitrate=2400 / ratetol=1.0 / qcomp=0.65 / qpmin=0 / qpmax=69 / qpstep=4 / cplxblur=20.0 / qblur=0.5 / ip_ratio=1.40 / pb_ratio=1.30 / aq=1:1.00
Язык : English
Default : Да
Forced : Нет
Цветовой диапазон : Limited
Основные цвета : BT.601 PAL
Характеристики трансфера : BT.470 System B, BT.470 System G
Коэффициенты матрицы : BT.601
Аудио
Идентификатор : 2
Формат : AC-3
Формат/Информация : Audio Coding 3
Расширение режима : CM (complete main)
Параметр Endianness формата : Big
Идентификатор кодека : A_AC3
Продолжительность : 2 ч. 27 м.
Вид битрейта : Постоянный
Битрейт : 192 Кбит/сек
Каналы : 2 канала
Расположение каналов : Front: L R
Частота : 48,0 КГц
Битовая глубина : 16 бит
Метод сжатия : С потерями
Размер потока : 202 Мбайт (7%)
Язык : Russian
Default : Да
Forced : Нет

Сравнение с исходником: http://screenshotcomparison.com/comparison/137398/picture:0
Релиз от:
Автор релиза:



   Похожие торренты   Торрент   Размер 
В этой теме нет новых непрочитанных сообщений. Демидовы [01-02 из 02] (1983) DVDRip от ExKinoRay

59 | 19

1.46 ГБ

В этой теме нет новых непрочитанных сообщений. Демидовы (1983) DVD5

30 | 6

4.06 ГБ

В этой теме нет новых непрочитанных сообщений. Без свидетелей (1983) DVDRip-AVC от ExKinoRay

91 | 17

1.76 ГБ

В этой теме нет новых непрочитанных сообщений. Небывальщина (1983) DVDRip-AVC от ExKinoRay

179 | 17

1.73 ГБ

В этой теме нет новых непрочитанных сообщений. Подросток (1983) DVDRip-AVC от ExKinoRay

16 | 5

7.03 ГБ

В этой теме нет новых непрочитанных сообщений. Непобедимый (1983) DVDRip-AVC от ExKinoRay

459 | 101

1.29 ГБ

В этой теме нет новых непрочитанных сообщений. Петля [1-3 из 3] (1983) DVDRip от ExKinoRay

31 | 8

2.05 ГБ




Вы не можете начинать темы
Вы не можете отвечать на сообщения
Вы не можете редактировать свои сообщения
Вы не можете удалять свои сообщения
Вы не можете добавлять вложения

Перейти:  
Для Мосгорсуда, Роскомнадзора и рекламодателей: mosgorsud-torrent[собачка]yandex.ru
Настройки
ppkBB3cker v.2 © 2008-2014 @ PPK
[ Time : 0.016s | 16 Queries | GZIP : Off ]
CGP [Extreme] output time : 0.00020s | 0 Queries | GZIP : Off

Торрент трекер RUTOR.IN, Не можете зайти на rutor.org? Какой новый адрес рутор? Какое зеркало рутор? Не работает rutor.org и зеркала? Тогда наш торрент специально для вас. Rutor.in неофициальное зеркало rutor. В случае если у Вас заблокирован rutor или вдруг Вы не можете на него зайти, то Вы без труда сможете скачать бесплатно и без рекламы последние новинки кино, игр, сериалов и прочего у нас, на Rutor.in. Не нужно использовать прокси, чтобы зайти на рутор, достаточно воспользоваться нашим ресурсом. Все новые фильмы, игры, сериалы, книги и музыка за 2013 и 2014 годы через торрент бесплатно. Скачивайте фильмы в хорошем качестве, игры для пк, xbox, playstation без регистрации. У нас вы найдете новые Зарубежные сериалы и Русские сериалы 2013, 2014, 2015 годов. Оставайтесь с нами, качайте любимые фильмы, игры, сериалы, книги и музыку.