img image001 image001 image001 image001 image001 image001 image001 image001 image001 image001 image001 image001 image001 image001 image001

Planets Sun Sun Sun
Статистика раздачи
Автор: Nickolas3434 | Размер: 3.71 ГБ | Добавлен: 07 авг 2015
Раздают: 80    Качают: 16
Скачать торрент
Скачать торрент
Описание торрента

СообщениеДобавлено: 07 авг 2015 


Информация о фильме
Название: И снова Анискин
Год выхода: 1978
Жанр: Детектив
Режиссер: Михаил Жаров, Виталий Иванов
В ролях: Михаил Жаров, Татьяна Пельтцер, Лидия Смирнова, Роман Ткачук, Юрий Пузырев, Никита Подгорный, Борис Щербаков, Валерий Носик, Александр Белявский, Маргарита Фомина, Лев Борисов, Виктор Борцов, Виктор Володин, Анна Жарова, Вадим Захарченко, Инна Кара-Моско, Люсьена Овчинникова, Валентина Березуцкая, Анастасия Зуева, Варвара Обухова, Валерий Малышев, Семен (Соломон) Соколовский, Станислав Чекан, Вадим Мадянов
О фильме: Последний фильм трилогии о пожилом деревенском участковом милиционере Анискине.
Из сельского музея похищены старинные предметы прикладного искусства. Под подозрение попадают сразу несколько местных жителей. После тщательного расследования обстоятельств дела о музейной краже Анискин пришёл к выводу, что человек, пытавшийся скрыться с похищенными ценностями на речном пароходе, и есть вор...
Страна: СССР
Продолжительность: 03:16:28
Перевод: не требуется
Файл
Кодек: MKV
Качество: HDTVRip-AVC
Видео: MPEG-4 AVC, 2400 Кбит/с, 768x576
Звук: AC3, 2 ch, 192 Кбит/с



raw [info]: 768x576p 1:1 @ 25/1 fps (cfr)
x264 [info]: using SAR=1/1
x264 [info]: using cpu capabilities: MMX2 SSE2Fast SSSE3 SSE4.2 AVX
x264 [info]: profile High, level 4.1
x264 [info]: frame I:490 Avg QP:17.02 size: 67325
x264 [info]: frame P:21783 Avg QP:20.34 size: 27899
x264 [info]: frame B:76567 Avg QP:21.99 size: 7123
----------------------------------------------------------------------------------------------------------
Общее
Уникальный идентификатор : 199221765929704761193395231764558327046 (0x95E0B769C6CD1555B6DF906A06772D06)
Полное имя : R:МОИ РИПЫИ снова Анискин_1978-HDTVRip-AVCАнискин-1.mkv
Формат : Matroska
Версия формата : Version 2
Размер файла : 1,19 Гбайт
Продолжительность : 1 ч. 5 м.
Общий поток : 2594 Кбит/сек
Дата кодирования : UTC 2015-08-05 15:10:12
Программа кодирования : mkvmerge v5.8.0 ('No Sleep / Pillow') built on Sep 2 2012 15:37:04
Библиотека кодирования : libebml v1.2.3 + libmatroska v1.3.0
Видео
Идентификатор : 1
Формат : AVC
Формат/Информация : Advanced Video Codec
Профиль формата : High@L4.1
Параметр CABAC формата : Да
Параметр ReFrames формата : 14 кадров
Идентификатор кодека : V_MPEG4/ISO/AVC
Продолжительность : 1 ч. 5 м.
Битрейт : 2400 Кбит/сек
Ширина : 768 пикселей
Высота : 576 пикселей
Соотношение сторон : 4:3
Режим частоты кадров : Постоянный
Частота кадров : 25,000 кадров/сек
Цветовое пространство : YUV
Субдискретизация насыщенности : 4:2:0
Битовая глубина : 8 бит
Тип развёртки : Прогрессивная
Бит/(Пиксели*Кадры) : 0.217
Размер потока : 1,08 Гбайт (91%)
Библиотека кодирования : x264 core 130 r2273 b3065e6
Настройки программы : cabac=1 / ref=14 / deblock=1:-2:-2 / analyse=0x3:0x113 / me=umh / subme=10 / psy=1 / psy_rd=1.05:0.15 / mixed_ref=1 / me_range=32 / chroma_me=1 / trellis=2 / 8x8dct=1 / cqm=0 / deadzone=21,11 / fast_pskip=0 / chroma_qp_offset=-3 / threads=12 / lookahead_threads=2 / sliced_threads=0 / nr=0 / decimate=0 / interlaced=0 / bluray_compat=0 / constrained_intra=0 / bframes=8 / b_pyramid=2 / b_adapt=2 / b_bias=0 / direct=3 / weightb=1 / open_gop=0 / weightp=2 / keyint=250 / keyint_min=25 / scenecut=40 / intra_refresh=0 / rc=2pass / mbtree=0 / bitrate=2400 / ratetol=1.0 / qcomp=0.65 / qpmin=0 / qpmax=39 / qpstep=4 / cplxblur=20.0 / qblur=0.5 / ip_ratio=1.40 / pb_ratio=1.30 / aq=1:1.00
Язык : English
Default : Да
Forced : Нет
Цветовой диапазон : Limited
Основные цвета : BT.709
Характеристики трансфера : BT.709
Коэффициенты матрицы : BT.709
Аудио
Идентификатор : 2
Формат : AC-3
Формат/Информация : Audio Coding 3
Расширение режима : CM (complete main)
Параметр Endianness формата : Big
Идентификатор кодека : A_AC3
Продолжительность : 1 ч. 5 м.
Вид битрейта : Постоянный
Битрейт : 192 Кбит/сек
Каналы : 2 канала
Расположение каналов : Front: L R
Частота : 48,0 КГц
Битовая глубина : 16 бит
Метод сжатия : С потерями
Размер потока : 90,5 Мбайт (7%)
Язык : Russian
Default : Да
Forced : Нет

Сравнение с двдрипом: http://screenshotcomparison.com/comparison/137611/picture:1
Сравнение с исходником: http://screenshotcomparison.com/comparison/137614/picture:5
Релиз от:
Автор релиза:



   Похожие торренты   Торрент   Размер 
В этой теме нет новых непрочитанных сообщений. И снова Анискин (1978) DVDRip

41 | 16

2.91 ГБ

В этой теме нет новых непрочитанных сообщений. И снова Анискин (1978) DVDRip-AVC

287 | 34

4.32 ГБ

В этой теме нет новых непрочитанных сообщений. Убийственный холод / Иногда они возвращаются снова и снова / Sometimes They Come Back... for More (1998) DVDRip | P

26 | 6

1.46 ГБ

В этой теме нет новых непрочитанных сообщений. Снова один на всех [01-04 из 04] (2014) WEB-DLRip-AVC от ExKinoRay

62 | 13

2.93 ГБ

В этой теме нет новых непрочитанных сообщений. Я снова здесь / Снова привет / Hello Again (1987) WEB-DL 720p от Brazzass

19 | 3

3.09 ГБ

В этой теме нет новых непрочитанных сообщений. Убей меня снова / Kill Me Again (1989) DVDRip от ExKinoRay

9 | 7

1.47 ГБ

В этой теме нет новых непрочитанных сообщений. Анискин и Фантомас (1973) DVDRip

151 | 25

2.05 ГБ




Вы не можете начинать темы
Вы не можете отвечать на сообщения
Вы не можете редактировать свои сообщения
Вы не можете удалять свои сообщения
Вы не можете добавлять вложения

Перейти:  
Для Мосгорсуда, Роскомнадзора и рекламодателей: mosgorsud-torrent[собачка]yandex.ru
 Вход
ppkBB3cker v.2 © 2008-2014 @ PPK
[ Time : 0.046s | 15 Queries | GZIP : Off ]

Торрент трекер RUTOR.IN, Не можете зайти на rutor.org? Какой новый адрес рутор? Какое зеркало рутор? Не работает rutor.org и зеркала? Тогда наш торрент специально для вас. Rutor.in неофициальное зеркало rutor. В случае если у Вас заблокирован rutor или вдруг Вы не можете на него зайти, то Вы без труда сможете скачать бесплатно и без рекламы последние новинки кино, игр, сериалов и прочего у нас, на Rutor.in. Не нужно использовать прокси, чтобы зайти на рутор, достаточно воспользоваться нашим ресурсом. Все новые фильмы, игры, сериалы, книги и музыка за 2013 и 2014 годы через торрент бесплатно. Скачивайте фильмы в хорошем качестве, игры для пк, xbox, playstation без регистрации. У нас вы найдете новые Зарубежные сериалы и Русские сериалы 2013, 2014, 2015 годов. Оставайтесь с нами, качайте любимые фильмы, игры, сериалы, книги и музыку.