img image001 image001 image001 image001 image001 image001 image001 image001 image001 image001 image001 image001 image001 image001 image001

Planets Sun Sun Sun
Статистика раздачи
Автор: Nickolas3434 | Размер: 2.14 ГБ | Добавлен: 08 авг 2015
Раздают: 481    Качают: 56
Скачать торрент
Скачать торрент
Описание торрента

СообщениеДобавлено: 08 авг 2015 


Информация о фильме
Название: Здравствуйте, я ваша тетя!
Год выхода: 1975
Жанр: Комедия
Режиссер: Виктор Титов
В ролях: Александр Калягин, Армен Джигарханян, Михаил Любезнов, Олег Шкловский, Михаил Козаков, Тамара Носова, Татьяна Веденеева, Татьяна Васильева, Галина Орлова (II), Валентин Гафт, Виктор Гайнов, Анатолий Малашкин, Владимир Коровкин, Рогволд Суховерко, Антон Макаров, Юрий Прохоров, Николай Тагин, Александр Макаров
О фильме: Действие фильма происходит в начале XX века. Безработный Бабс Баберлей (Александр Калягин) случайно попадает в богатый дом. Здесь его уже ждут два молодых джентльмена, правда, нужен им не Бабс, а тетушка-миллионерша донна Роза д’Альвадорец, вдова дона Педро из Бразилии, где «много-много диких обезьян», кем главный герой и становится, в надежде скрыться от полиции. Такая заваруха затеяна, дабы донна Роза, располагая своим авторитетом и состоянием, сумела убедить опекуна двух прелестных девушек, возлюбленных джентльменов, к коим и попал Бабс, разрешить замужество до 25-ти лет, сохраняя право на получение приданного. Тем временем, богатая «тётушка» привлекает к себе внимание хромого полковника Чеснея (Михаил Козаков) и вышеупомянутого опекуна судьи Кригса (Армен Джигарханян), страстно желающих поправить свое материальное положение. Кстати, Джигарханян, игравший Чеснея в театре, изначально пробовался на эту роль. Но режиссер Виктор Титов увидел его Кригсом. И все бы ничего… но тут приезжает настоящая тётя Роза. По мотивам пьесы Б. Томаса «Тетка Чарлея».
Страна: СССР
Продолжительность: 2x ~ 00:48:25
Перевод: не требуется
Файл
Кодек: MKV
Качество: DVDRip-AVC
Видео: MPEG-4 AVC, 2750 Кбит/с, 716x572@763x572
Звук: AC3, 6 ch, 384 Кбит/с




raw [info]: 716x572p 16:15 @ 25/1 fps (cfr)
x264 [info]: using SAR=16/15
x264 [info]: using cpu capabilities: MMX2 SSE2Fast SSSE3 SSE4.2 AVX
x264 [info]: profile High, level 4.1
x264 [info]: frame I:445 Avg QP:17.49 size: 75499
x264 [info]: frame P:17516 Avg QP:20.65 size: 28678
x264 [info]: frame B:56166 Avg QP:22.75 size: 8611
================================================================================================
Общее
Уникальный идентификатор : 176668931947906065491907069376637966665 (0x84E932D94B2E199B84B9DEE322901949)
Полное имя : D:Здравствуйте, я ваша тетя_1975-DVDRip-AVCТётя-1.mkv
Формат : Matroska
Версия формата : Version 2
Размер файла : 1,08 Гбайт
Продолжительность : 49 м.
Общий поток : 3137 Кбит/сек
Дата кодирования : UTC 2015-08-07 08:12:16
Программа кодирования : mkvmerge v5.8.0 ('No Sleep / Pillow') built on Sep 2 2012 15:37:04
Библиотека кодирования : libebml v1.2.3 + libmatroska v1.3.0
Видео
Идентификатор : 1
Формат : AVC
Формат/Информация : Advanced Video Codec
Профиль формата : High@L4.1
Параметр CABAC формата : Да
Параметр ReFrames формата : 15 кадров
Идентификатор кодека : V_MPEG4/ISO/AVC
Продолжительность : 49 м.
Битрейт : 2750 Кбит/сек
Ширина : 716 пикселей
Высота : 572 пикселя
Соотношение сторон : 4:3
Соотношение сторон в оригинале : 4:3
Режим частоты кадров : Постоянный
Частота кадров : 25,000 кадров/сек
Цветовое пространство : YUV
Субдискретизация насыщенности : 4:2:0
Битовая глубина : 8 бит
Тип развёртки : Прогрессивная
Бит/(Пиксели*Кадры) : 0.269
Размер потока : 951 Мбайт (86%)
Библиотека кодирования : x264 core 130 r2273 b3065e6
Настройки программы : cabac=1 / ref=15 / deblock=1:-2:-2 / analyse=0x3:0x133 / me=umh / subme=10 / psy=1 / psy_rd=1.05:0.12 / mixed_ref=1 / me_range=32 / chroma_me=1 / trellis=2 / 8x8dct=1 / cqm=0 / deadzone=21,11 / fast_pskip=0 / chroma_qp_offset=-3 / threads=12 / lookahead_threads=3 / sliced_threads=0 / nr=0 / decimate=0 / interlaced=0 / bluray_compat=0 / constrained_intra=0 / bframes=10 / b_pyramid=2 / b_adapt=2 / b_bias=0 / direct=3 / weightb=1 / open_gop=0 / weightp=2 / keyint=250 / keyint_min=25 / scenecut=40 / intra_refresh=0 / rc=2pass / mbtree=0 / bitrate=2750 / ratetol=1.0 / qcomp=0.65 / qpmin=0 / qpmax=39 / qpstep=4 / cplxblur=20.0 / qblur=0.5 / ip_ratio=1.40 / pb_ratio=1.30 / aq=1:1.00
Язык : English
Default : Да
Forced : Нет
Цветовой диапазон : Limited
Основные цвета : BT.601 PAL
Характеристики трансфера : BT.470 System B, BT.470 System G
Коэффициенты матрицы : BT.601
Аудио
Идентификатор : 2
Формат : AC-3
Формат/Информация : Audio Coding 3
Расширение режима : CM (complete main)
Параметр Endianness формата : Big
Идентификатор кодека : A_AC3
Продолжительность : 49 м.
Вид битрейта : Постоянный
Битрейт : 384 Кбит/сек
Каналы : 6 каналов
Расположение каналов : Front: L C R, Side: L R, LFE
Частота : 48,0 КГц
Битовая глубина : 16 бит
Метод сжатия : С потерями
Размер потока : 136 Мбайт (12%)
Язык : Russian
Default : Да
Forced

Релиз от:
Автор релиза:



   Похожие торренты   Торрент   Размер 
В этой теме нет новых непрочитанных сообщений. Здравствуйте, я ваша тетя! (1975) DVDRip

181 | 20

1.46 ГБ

В этой теме нет новых непрочитанных сообщений. Здравствуйте, меня зовут Дорис / Hello, My Name Is Doris (2015) BDRip-AVC от ExKinoRay | iTunes

200 | 33

1.79 ГБ

В этой теме нет новых непрочитанных сообщений. Здравствуйте, меня зовут Дорис / Hello, My Name Is Doris (2015) BDRemux 1080p от ExKinoRay | iTunes

50 | 25

19.2 ГБ

В этой теме нет новых непрочитанных сообщений. Здравствуйте, меня зовут Дорис / Hello, My Name Is Doris (2015) BDRip 1080p от ExKinoRay | iTunes

80 | 21

9.73 ГБ

В этой теме нет новых непрочитанных сообщений. Тетя Хильда / Tante Hilda! (2013) DVDRip | L1

122 | 6

1.44 ГБ

В этой теме нет новых непрочитанных сообщений. Тетя Клава фон Геттен [2 серии из 2] (2009) DVDRip

47 | 7

1.39 ГБ

В этой теме нет новых непрочитанных сообщений. Тетя Зита / Tante Zita (1968) DVDRip | Р2

0 | 6

1.37 ГБ




Вы не можете начинать темы
Вы не можете отвечать на сообщения
Вы не можете редактировать свои сообщения
Вы не можете удалять свои сообщения
Вы не можете добавлять вложения

Перейти:  
Для Мосгорсуда, Роскомнадзора и рекламодателей: mosgorsud-torrent[собачка]yandex.ru
 Вход
ppkBB3cker v.2 © 2008-2014 @ PPK
[ Time : 0.047s | 15 Queries | GZIP : Off ]

Торрент трекер RUTOR.IN, Не можете зайти на rutor.org? Какой новый адрес рутор? Какое зеркало рутор? Не работает rutor.org и зеркала? Тогда наш торрент специально для вас. Rutor.in неофициальное зеркало rutor. В случае если у Вас заблокирован rutor или вдруг Вы не можете на него зайти, то Вы без труда сможете скачать бесплатно и без рекламы последние новинки кино, игр, сериалов и прочего у нас, на Rutor.in. Не нужно использовать прокси, чтобы зайти на рутор, достаточно воспользоваться нашим ресурсом. Все новые фильмы, игры, сериалы, книги и музыка за 2013 и 2014 годы через торрент бесплатно. Скачивайте фильмы в хорошем качестве, игры для пк, xbox, playstation без регистрации. У нас вы найдете новые Зарубежные сериалы и Русские сериалы 2013, 2014, 2015 годов. Оставайтесь с нами, качайте любимые фильмы, игры, сериалы, книги и музыку.