img image001 image001 image001 image001 image001 image001 image001 image001 image001 image001 image001 image001 image001 image001 image001

Planets Sun Sun Sun
Статистика раздачи
Автор: Nickolas3434 | Размер: 1.09 ГБ | Добавлен: 09 авг 2015
Раздают: 9    Качают: 1
Скачать торрент
Скачать торрент
Описание торрента

СообщениеДобавлено: 09 авг 2015 

Страна: СССР
Производство: Союздетфильм
Жанр: детский
Год выпуска: 1948
Продолжительность: 01:06:36
Перевод: Не требуется
Cубтитры: нет
Оригинальная аудиодорожка: русский
Режиссер: Мария Сауц, Владимир Сухобоков
В ролях:
Александр Соколов, Ирина Начинкина, Слава Котов, Анатолий Ганичев, Александр Хвыля, Галина Степанова, Вера Окунева, Виталий Доронин, Николай Богатырев...
Полный список актёров
Описание:
В семье директора завода коммуниста Вишняка вместе с его детьми Мариной и Валерием воспитывается приемный сын Шура Бадекин, отец которого погиб на фронте. Дети хорошо учатся, дружат между собой. Однако в характере Валерия все больше проявляются себялюбие, эгоизм, заносчивость. Однажды отец заметил, что Валерий перестал носить пионерский галстук. Оказывается, подросток отказался выполнить поручение отряда и сам снял с себя галстук. На совете отряда Шура Бадекин осудил поведение друга, но его поведение Валерий расценил как предательство…





Источник: DVD9 R5
Качество видео: DVDRip
Формат видео: AVI
Видео: 688x512 (4:3), 25 fps, XviD ~ 2156 kbps avg, 0.245 bit/pixel
Аудио: 48 kHz, Dolby Digital AC3 2.0, 192 kbps
Раздача от:
Общее
Полное имя : Krasnyy.galstuk.1948.DVDRip_[New-team]_by_AVP_Studio.avi
Формат : AVI
Формат/Информация : Audio Video Interleave
Размер файла : 1,09 Гбайт
Продолжительность : 1 ч. 6 м.
Общий поток : 2358 Кбит/сек
Программа кодирования : VirtualDubMod 1.5.10.3 | www.virtualdub-fr.org || (build 2550/release)
Библиотека кодирования : VirtualDubMod build 2550/release
Видео
Идентификатор : 0
Формат : MPEG-4 Visual
Профиль формата : Advanced Simple@L5
Параметр BVOP формата : 1
Параметр QPel формата : Нет
Параметр GMC формата : Без точки перехода
Параметр матрицы формата : Выборочная
Идентификатор кодека : XVID
Идентификатор кодека/Подсказка : XviD
Продолжительность : 1 ч. 6 м.
Битрейт : 2156 Кбит/сек
Ширина : 688 пикселей
Высота : 512 пикселей
Соотношение сторон : 4:3
Частота кадров : 25,000 кадров/сек
Цветовое пространство : YUV
Субдискретизация насыщенности : 4:2:0
Битовая глубина : 8 бит
Тип развёртки : Прогрессивная
Метод сжатия : С потерями
Бит/(Пиксели*Кадры) : 0.245
Размер потока : 1021 Мбайт (91%)
Библиотека кодирования : XviD 73
Аудио
Идентификатор : 1
Формат : AC-3
Формат/Информация : Audio Coding 3
Расширение режима : CM (complete main)
Параметр Endianness формата : Big
Идентификатор кодека : 2000
Продолжительность : 1 ч. 6 м.
Вид битрейта : Постоянный
Битрейт : 192 Кбит/сек
Каналы : 2 канала
Расположение каналов : Front: L R
Частота : 48,0 КГц
Метод сжатия : С потерями
Размер потока : 90,9 Мбайт (8%)
Выравнивание : Разделение по промежуткам
Продолжительность промежутка : 40 мс. (1,00 видеокадр)
Время предзагрузки промежутка : 500 мс





   Похожие торренты   Торрент   Размер 
В этой теме нет новых непрочитанных сообщений. Красный галстук (1948) DVDRip-AVC от New-Team

54 | 7

1.09 ГБ

В этой теме нет новых непрочитанных сообщений. Красный галстук (1948) DVDRip от New-Team

30 | 8

745.37 МБ

В этой теме нет новых непрочитанных сообщений. Красный галстук (1948) DVDRip Werdog

0 | 4

797.84 МБ

В этой теме нет новых непрочитанных сообщений. Первоклассница (1948) DVDRip-AVC от New-Team

61 | 7

1.09 ГБ

В этой теме нет новых непрочитанных сообщений. Первоклассница (1948) DVDRip от New-Team

22 | 3

745.59 МБ

В этой теме нет новых непрочитанных сообщений. Первоклассница (1948) DVDRip от New-Team

12 | 3

1.09 ГБ

В этой теме нет новых непрочитанных сообщений. Мичурин (1948) DVDRip от New-Team

26 | 6

745.51 МБ




Вы не можете начинать темы
Вы не можете отвечать на сообщения
Вы не можете редактировать свои сообщения
Вы не можете удалять свои сообщения
Вы не можете добавлять вложения

Перейти:  
Для Мосгорсуда, Роскомнадзора и рекламодателей: mosgorsud-torrent[собачка]yandex.ru
 Вход
ppkBB3cker v.2 © 2008-2014 @ PPK
[ Time : 0.031s | 15 Queries | GZIP : Off ]

Торрент трекер RUTOR.IN, Не можете зайти на rutor.org? Какой новый адрес рутор? Какое зеркало рутор? Не работает rutor.org и зеркала? Тогда наш торрент специально для вас. Rutor.in неофициальное зеркало rutor. В случае если у Вас заблокирован rutor или вдруг Вы не можете на него зайти, то Вы без труда сможете скачать бесплатно и без рекламы последние новинки кино, игр, сериалов и прочего у нас, на Rutor.in. Не нужно использовать прокси, чтобы зайти на рутор, достаточно воспользоваться нашим ресурсом. Все новые фильмы, игры, сериалы, книги и музыка за 2013 и 2014 годы через торрент бесплатно. Скачивайте фильмы в хорошем качестве, игры для пк, xbox, playstation без регистрации. У нас вы найдете новые Зарубежные сериалы и Русские сериалы 2013, 2014, 2015 годов. Оставайтесь с нами, качайте любимые фильмы, игры, сериалы, книги и музыку.