img image001 image001 image001 image001 image001 image001 image001 image001 image001 image001 image001 image001 image001 image001 image001

Planets Sun Sun Sun
Статистика раздачи
Автор: Nickolas3434 | Размер: 1.94 ГБ | Добавлен: 11 авг 2015, 21:19
Раздают: 2145    Качают: 110
Скачать торрент
Скачать торрент
Описание торрента

СообщениеДобавлено: 11 авг 2015, 21:19 


Год выпуска: 2015
Страна: Россия
Жанр: комедия, мелодрама
Продолжительность: 01:36:29
Перевод: Не требуется [iTunes]
Cубтитры: нет
Режиссер: Арман Геворгян
В ролях: Дмитрий Ендальцев, Светлана Ходченкова, Анна Чиповская, Тимур Батрутдинов, Борис Смолкин, Виталий Хаев, Гоша Куценко, Дмитрий Нагиев, Дмитрий Хрусталев, Михаил Самота
Описание: В руки Макса попадает «счастливый» гороскоп, которому он должен следовать 30 дней, выполняя все его безумные предписания, чтобы добиться расположения недоступной прежде красавицы и удачи во всех делах. Но в один прекрасный день гороскоп Макса подменяют…
Качество видео: WEB-DLRip-AVC
Формат видео: AVI
Видео: 1024х432, 24 fps, AVC, ~2500 kbps avg, 0.235 bit/pixel
Аудио: 48 kHz, AC3 Dolby Digital, 3/2 (L,C,R,l,r) + LFE ch, ~384 kbps
Релиз от:




Гороскоп на удачуGoroskop_na_udachu_2015_AVC_WEB-DLRip_[scarabey.org].mkv
Format : Matroska
Format version : Version 2
File size : 1.94 GiB
Duration : 1h 36mn
Overall bit rate : 2 885 Kbps
Encoded date : UTC 2015-08-07 22:05:07
Writing application : mkvmerge v6.1.0 ('Old Devil') built on Mar 4 2013 09:10:42
Writing library : libebml v1.3.0 + libmatroska v1.4.0
Video
ID : 1
Format : AVC
Format/Info : Advanced Video Codec
Format profile : High@L4.1
Format settings, CABAC : Yes
Format settings, ReFrames : 8 frames
Codec ID : V_MPEG4/ISO/AVC
Duration : 1h 36mn
Bit rate : 2 500 Kbps
Width : 1 024 pixels
Height : 432 pixels
Display aspect ratio : 2.35:1
Original display aspect ratio : 2.35:1
Frame rate mode : Constant
Frame rate : 24.000 fps
Color space : YUV
Chroma subsampling : 4:2:0
Bit depth : 8 bits
Scan type : Progressive
Bits/(Pixel*Frame) : 0.235
Stream size : 1.65 GiB (85%)
Writing library : x264 core 138 r2356 a1d3d17
Encoding settings : cabac=1 / ref=8 / deblock=1:-3:-2 / analyse=0x3:0x113 / me=umh / subme=10 / psy=1 / psy_rd=1.00:0.05 / mixed_ref=1 / me_range=32 / chroma_me=1 / trellis=2 / 8x8dct=1 / cqm=0 / deadzone=21,11 / fast_pskip=0 / chroma_qp_offset=-3 / threads=12 / lookahead_threads=2 / sliced_threads=0 / nr=0 / decimate=0 / interlaced=0 / bluray_compat=0 / constrained_intra=0 / bframes=8 / b_pyramid=2 / b_adapt=2 / b_bias=0 / direct=3 / weightb=1 / open_gop=0 / weightp=2 / keyint=240 / keyint_min=24 / scenecut=40 / intra_refresh=0 / rc_lookahead=40 / rc=2pass / mbtree=1 / bitrate=2500 / ratetol=1.0 / qcomp=0.60 / qpmin=0 / qpmax=69 / qpstep=4 / cplxblur=20.0 / qblur=0.5 / ip_ratio=1.40 / aq=1:1.00
Default : Yes
Forced : No
Audio
ID : 2
Format : AC-3
Format/Info : Audio Coding 3
Mode extension : CM (complete main)
Format settings, Endianness : Big
Codec ID : A_AC3
Duration : 1h 36mn
Bit rate mode : Constant
Bit rate : 384 Kbps
Channel(s) : 6 channels
Channel positions : Front: L C R, Side: L R, LFE
Sampling rate : 48.0 KHz
Bit depth : 16 bits
Compression mode : Lossy
Stream size : 265 MiB (13%)
Default : Yes
Forced : No



   Похожие торренты   Торрент   Размер 
В этой теме нет новых непрочитанных сообщений. Гороскоп на удачу (2015) WEB-DLRip от Scarabey | iTunes

8269 | 373

1.44 ГБ

В этой теме нет новых непрочитанных сообщений. Гороскоп на удачу (2015) WEB-DLRip-AVC | iTunes

2809 | 97

1.45 ГБ

В этой теме нет новых непрочитанных сообщений. Гороскоп на удачу (2015) WEB-DLRip | iTunes

13484 | 516

1.37 ГБ

В этой теме нет новых непрочитанных сообщений. Гороскоп на удачу (2015) WEB-DLRip от MegaPeer | iTunes

2178 | 122

743.84 МБ

В этой теме нет новых непрочитанных сообщений. Гороскоп на удачу (2015) WEB-DL 720p | iTunes

4690 | 169

3 ГБ

В этой теме нет новых непрочитанных сообщений. Гороскоп на удачу (2015) WEB-DL 1080p | iTunes

1242 | 110

5.73 ГБ

В этой теме нет новых непрочитанных сообщений. 14+ (2015) WEB-DLRip-AVC от Scarabey | iTunes

645 | 36

2.17 ГБ




Вы не можете начинать темы
Вы не можете отвечать на сообщения
Вы не можете редактировать свои сообщения
Вы не можете удалять свои сообщения
Вы не можете добавлять вложения

Перейти:  
Для Мосгорсуда, Роскомнадзора и рекламодателей: mosgorsud-torrent[собачка]yandex.ru
Настройки
ppkBB3cker v.2 © 2008-2014 @ PPK
[ Time : 0.019s | 14 Queries | GZIP : Off ]
CGP [Extreme] output time : 0.00014s | 0 Queries | GZIP : Off

Торрент трекер RUTOR.IN, Не можете зайти на rutor.org? Какой новый адрес рутор? Какое зеркало рутор? Не работает rutor.org и зеркала? Тогда наш торрент специально для вас. Rutor.in неофициальное зеркало rutor. В случае если у Вас заблокирован rutor или вдруг Вы не можете на него зайти, то Вы без труда сможете скачать бесплатно и без рекламы последние новинки кино, игр, сериалов и прочего у нас, на Rutor.in. Не нужно использовать прокси, чтобы зайти на рутор, достаточно воспользоваться нашим ресурсом. Все новые фильмы, игры, сериалы, книги и музыка за 2013 и 2014 годы через торрент бесплатно. Скачивайте фильмы в хорошем качестве, игры для пк, xbox, playstation без регистрации. У нас вы найдете новые Зарубежные сериалы и Русские сериалы 2013, 2014, 2015 годов. Оставайтесь с нами, качайте любимые фильмы, игры, сериалы, книги и музыку.