img image001 image001 image001 image001 image001 image001 image001 image001 image001 image001 image001 image001 image001 image001 image001

Planets Sun Sun Sun
Статистика раздачи
Автор: Nickolas3434 | Размер: 744.56 МБ | Добавлен: 12 авг 2015
Раздают: 21    Качают: 3
Скачать торрент
Скачать торрент
Описание торрента

СообщениеДобавлено: 12 авг 2015 


Информация о фильме
Название: Шоссе Энтузиастов
Год выхода: 2002
Жанр: Мелодрама, комикс
Режиссер: Нормунд Лацис
В ролях: Алекс Зубаржук, Егор Нагаен, Дмитрий Пригов, Александр Ф. Скляр, Егор Никонов, голос Володарского
О фильме:
Добро пожаловать на Шоссе Энтузиастов, по которому два хороших приятеля отправляются в путешествие. Вернее, пытаются слинять из города. Что-то связано с деньгами. Или со службой в армии? По ходу дела красят на шоссе стойки рекламных щитов. Почему-то разговаривают по-польски ( или по-чешски?). Переводит их ахинею голос Володарского. Состояние, в котором герои пребывают, не позволяет им принимать адекватные решения и воздействовать на события. Изначальная цель их путешествия теряется в затуманенных лабиринтах сознания.
Доп.инфо: Источник плохого качества

Страна: Россия
Продолжительность: 01:14:26
Перевод: Не требуется
Файл
Кодек: XviD
Качество: DVDRip
Видео: 640x480 (1.33:1), 25 fps, XviD build 73 ~1260 kbps avg, 0.16 bit/pixel
Звук: 48 kHz, MPEG Layer 3, 2 ch, ~128.00 kbps avg
Субтитры: Отсутствуют
Семпл
File: Шоссе Энтузиастов_by shkiper.avi
Filesize: 744.56 Mb ( 780 732 416 bytes )
Play length: 01:14:26.879 (111672 frames)
Subtitles: Not Present
Video: 640x480 (1.33:1), 25 fps, XviD build 73 ~1260 kbps avg, 0.16 bit/pixel
Audio: 48 kHz, MPEG Layer 3, 2 ch, ~128.00 kbps avg
General
Complete name : D:Изготовление рипаШоссе Энтузиастов_by shkiper.avi
Format : AVI
Format/Info : Audio Video Interleave
File size : 745 MiB
Duration : 1h 14mn
Overall bit rate : 1 398 Kbps
Writing application : VirtualDubMod 1.5.10.3 | www.virtualdub-fr.org || (build 2550/release)
Writing library : VirtualDubMod build 2550/release
Video
ID : 0
Format : MPEG-4 Visual
Format profile : Advanced Simple@L5
Format settings, BVOP : 1
Format settings, QPel : No
Format settings, GMC : No warppoints
Format settings, Matrix : Custom
Codec ID : XVID
Codec ID/Hint : XviD
Duration : 1h 14mn
Bit rate : 1 261 Kbps
Width : 640 pixels
Height : 480 pixels
Frame rate : 25.000 fps
Color space : YUV
Chroma subsampling : 4:2:0
Bit depth : 8 bits
Scan type : Progressive
Compression mode : Lossy
Bits/(Pixel*Frame) : 0.164
Stream size : 671 MiB (90%)
Writing library : XviD 73
Audio
ID : 1
Format : MPEG Audio
Format version : Version 1
Format profile : Layer 3
Mode : Joint stereo
Mode extension : MS Stereo
Codec ID : 55
Codec ID/Hint : MP3
Duration : 1h 14mn
Bit rate mode : Constant
Bit rate : 128 Kbps
Channel(s) : 2 channels
Sampling rate : 48.0 KHz
Compression mode : Lossy
Stream size : 68.2 MiB (9%)
Alignment : Aligned on interleaves
Interleave, duration : 40 ms (1.00 video frame)
Interleave, preload duratio : 504 ms
Writing library : LAME3.99r
Encoding settings : -m j -V 4 -q 2 -lowpass 17 -b 128


Релиз от:



   Похожие торренты   Торрент   Размер 
В этой теме нет новых непрочитанных сообщений. Шоссе Энтузиастов (2002) DVDRip

29 | 1

1.06 ГБ

В этой теме нет новых непрочитанных сообщений. Шоссе Энтузиастов (2002) DVD5

22 | 2

2.47 ГБ

В этой теме нет новых непрочитанных сообщений. Шоссе / Highway (2002) DVDRip | P

4 | 3

1.37 ГБ

В этой теме нет новых непрочитанных сообщений. Кровавая Мэлори / Bloody Mallory (2002) DVDRip от Шкипер

119 | 7

745.3 МБ

В этой теме нет новых непрочитанных сообщений. Шоссе / Highway (2002) WEB-DLRip-AVC | P2

83 | 7

1.37 ГБ

В этой теме нет новых непрочитанных сообщений. Шоссе / Highway (2002) WEB-DLRip от MegaPeer | P2

22 | 0

1.46 ГБ

В этой теме нет новых непрочитанных сообщений. Шоссе / Highway (2002) WEB-DLRip от Portablius | P2

9 | 3

748.45 МБ




Вы не можете начинать темы
Вы не можете отвечать на сообщения
Вы не можете редактировать свои сообщения
Вы не можете удалять свои сообщения
Вы не можете добавлять вложения

Перейти:  
Для Мосгорсуда, Роскомнадзора и рекламодателей: mosgorsud-torrent[собачка]yandex.ru
 Вход
ppkBB3cker v.2 © 2008-2014 @ PPK
[ Time : 0.023s | 14 Queries | GZIP : Off ]

Торрент трекер RUTOR.IN, Не можете зайти на rutor.org? Какой новый адрес рутор? Какое зеркало рутор? Не работает rutor.org и зеркала? Тогда наш торрент специально для вас. Rutor.in неофициальное зеркало rutor. В случае если у Вас заблокирован rutor или вдруг Вы не можете на него зайти, то Вы без труда сможете скачать бесплатно и без рекламы последние новинки кино, игр, сериалов и прочего у нас, на Rutor.in. Не нужно использовать прокси, чтобы зайти на рутор, достаточно воспользоваться нашим ресурсом. Все новые фильмы, игры, сериалы, книги и музыка за 2013 и 2014 годы через торрент бесплатно. Скачивайте фильмы в хорошем качестве, игры для пк, xbox, playstation без регистрации. У нас вы найдете новые Зарубежные сериалы и Русские сериалы 2013, 2014, 2015 годов. Оставайтесь с нами, качайте любимые фильмы, игры, сериалы, книги и музыку.