img image001 image001 image001 image001 image001 image001 image001 image001 image001 image001 image001 image001 image001 image001 image001

Planets Sun Sun Sun
Статистика раздачи
Автор: Nickolas3434 | Размер: 1.46 ГБ | Добавлен: 14 авг 2015
Раздают: 116    Качают: 15
Скачать торрент
Скачать торрент
Описание торрента

СообщениеДобавлено: 14 авг 2015 

Страна: СССР
Производство: Мосфильм
Жанр: мюзикл, комедия
Год выпуска: 1949
Продолжительность: 01:44:22
Перевод: Не требуется
Cубтитры: нет
Оригинальная аудиодорожка: русский
Режиссер: Иван Пырьев
В ролях:
Марина Ладынина, Сергей Лукьянов, Владимир Володин, Александр Хвыля, Сергей Блинников, Клара Лучко, Екатерина Савинова, Владлен Давыдов, Андрей Петров, Юрий Любимов, Борис Андреев, Елена Савицкая, Валентина Телегина, Владимир Дорофеев, Татьяна Говоркова...
Полный список актёров
Описание:
История любви председателей колхозов и героев труда Гордея Ворона и Галины Пересветовой разворачивается на фоне кипучей и радостной колхозной жизни, в которой и труд, и праздники выглядят как яркое, полное оптимизма зрелище. Это впечатление возникает во многом благодаря песням, которые после выхода фильма стали поистине народными.





Источник: HDTV 1080i
Качество видео: HDTVRip
Формат видео: AVI
Видео: 720x544 (4:3), 25 fps, XviD ~ 1800 kbps avg, 0.184 bit/pixel
Аудио: 48 kHz, Dolby Digital AC3 2.0, 192 kbps
Раздача от:
Общее
Полное имя : Kubanskie.kazaki.1949.HDTVRip_[New-team]_by_AVP_Studio.avi
Формат : AVI
Формат/Информация : Audio Video Interleave
Размер файла : 1,46 Гбайт
Продолжительность : 1 ч. 44 м.
Общий поток : 2002 Кбит/сек
Программа кодирования : VirtualDubMod 1.5.10.3 | www.virtualdub-fr.org || (build 2550/release)
Библиотека кодирования : VirtualDubMod build 2550/release
Видео
Идентификатор : 0
Формат : MPEG-4 Visual
Профиль формата : Advanced Simple@L5
Параметр BVOP формата : 1
Параметр QPel формата : Нет
Параметр GMC формата : Без точки перехода
Параметр матрицы формата : Выборочная
Идентификатор кодека : XVID
Идентификатор кодека/Подсказка : XviD
Продолжительность : 1 ч. 44 м.
Битрейт : 1800 Кбит/сек
Ширина : 720 пикселей
Высота : 544 пикселя
Соотношение сторон : 4:3
Частота кадров : 25,000 кадров/сек
Цветовое пространство : YUV
Субдискретизация насыщенности : 4:2:0
Битовая глубина : 8 бит
Тип развёртки : Прогрессивная
Метод сжатия : С потерями
Бит/(Пиксели*Кадры) : 0.184
Размер потока : 1,31 Гбайт (90%)
Библиотека кодирования : XviD 73
Аудио
Идентификатор : 1
Формат : AC-3
Формат/Информация : Audio Coding 3
Расширение режима : CM (complete main)
Параметр Endianness формата : Big
Идентификатор кодека : 2000
Продолжительность : 1 ч. 44 м.
Вид битрейта : Постоянный
Битрейт : 192 Кбит/сек
Каналы : 2 канала
Расположение каналов : Front: L R
Частота : 48,0 КГц
Метод сжатия : С потерями
Размер потока : 143 Мбайт (10%)
Выравнивание : Разделение по промежуткам
Продолжительность промежутка : 40 мс. (1,00 видеокадр)
Время предзагрузки промежутка : 500 мс





   Похожие торренты   Торрент   Размер 
В этой теме нет новых непрочитанных сообщений. Кубанские казаки (1949) HDTVRip-AVC от New-Team

169 | 26

1.46 ГБ

В этой теме нет новых непрочитанных сообщений. Кубанские казаки (1949) HDTVRip от New-Team

65 | 18

745.36 МБ

В этой теме нет новых непрочитанных сообщений. Кубанские казаки (1949) HDTVRip

161 | 39

1.37 ГБ

В этой теме нет новых непрочитанных сообщений. Кубанские казаки (1949) HDTVRip-AVC от ExKinoRay

38 | 14

3.75 ГБ

В этой теме нет новых непрочитанных сообщений. Кубанские казаки (1949) DVDRip от KinoZalSat

269 | 20

1.37 ГБ

В этой теме нет новых непрочитанных сообщений. Кубанские казаки (1949) HDTV 1080i от kuzmichm2196

99 | 216

11.97 ГБ

В этой теме нет новых непрочитанных сообщений. Падение Берлина (1949) DVDRip от New-Team

14 | 2

2.18 ГБ




Вы не можете начинать темы
Вы не можете отвечать на сообщения
Вы не можете редактировать свои сообщения
Вы не можете удалять свои сообщения
Вы не можете добавлять вложения

Перейти:  
Для Мосгорсуда, Роскомнадзора и рекламодателей: mosgorsud-torrent[собачка]yandex.ru
 Вход
ppkBB3cker v.2 © 2008-2014 @ PPK
[ Time : 0.042s | 16 Queries | GZIP : Off ]

Торрент трекер RUTOR.IN, Не можете зайти на rutor.org? Какой новый адрес рутор? Какое зеркало рутор? Не работает rutor.org и зеркала? Тогда наш торрент специально для вас. Rutor.in неофициальное зеркало rutor. В случае если у Вас заблокирован rutor или вдруг Вы не можете на него зайти, то Вы без труда сможете скачать бесплатно и без рекламы последние новинки кино, игр, сериалов и прочего у нас, на Rutor.in. Не нужно использовать прокси, чтобы зайти на рутор, достаточно воспользоваться нашим ресурсом. Все новые фильмы, игры, сериалы, книги и музыка за 2013 и 2014 годы через торрент бесплатно. Скачивайте фильмы в хорошем качестве, игры для пк, xbox, playstation без регистрации. У нас вы найдете новые Зарубежные сериалы и Русские сериалы 2013, 2014, 2015 годов. Оставайтесь с нами, качайте любимые фильмы, игры, сериалы, книги и музыку.