img image001 image001 image001 image001 image001 image001 image001 image001 image001 image001 image001 image001 image001 image001 image001

Planets Sun Sun Sun
Статистика раздачи
Автор: Nickolas3434 | Размер: 1.41 ГБ | Добавлен: 14 авг 2015
Раздают: 51    Качают: 11
Скачать торрент
Скачать торрент
Описание торрента

СообщениеДобавлено: 14 авг 2015 


Информация о фильме
Название: Без вести пропавший
Год выхода: 1956
Жанр: Военный
Продолжительность: 01:13:52
Режиссер: Исаак Шмарук
В ролях: Владимир Васильев, Борис Карлаш-Вербицкий, Сергей Голованов, Олег Голубицкий, Байба Индриксоне, Михаил Кузнецов, Лаврентий Масоха, Наталия Ужвий, Виктор Добровольский, Софья Гиацинтова, Юрий Чекулаев, Николай Дупак
О фильме:1942 год. В одном из боев раненый советский офицер, воспользовавшись документами умирающего чешского врача, служившего в фашисткой армии, добирается до Словакии и разыскивает мать погибшего. Здесь он находит временный приют и поддержку, вступает в интернациональный партизанский отряд и вскоре становится его командиром...
Киевская киностудия (с 1957 года - киностудия имени А.Довженко).

Файл
Кодек: H264
Качество: DVDRip-AVC
Видео: MPEG4 Video (H264), 720x552, 25fps, 2500 Kbps
Звук: Dolby AC3, 48000 Hz, 2ch, 224 kbps
General
Unique ID : 189302795898321244826151524435584559239 (0x8E6A646EEE762462A51EE99B97F72887)
Complete name : F:Torrent 21956.Bez.vesti.renta23.mkv
Format : Matroska
Format version : Version 4 / Version 2
File size : 1.41 GiB
Duration : 1h 13mn
Overall bit rate : 2 726 Kbps
Movie name : 1956 Без вести пропавший / renta23
Encoded date : UTC 2015-08-12 19:49:32
Writing application : mkvmerge v8.1.0 ('Psychedelic Postcard') 32bit
Writing library : libebml v1.3.1 + libmatroska v1.4.2
DURATION : 01:13:51.968000000
NUMBER_OF_FRAMES : 138499
NUMBER_OF_BYTES : 124095104
_STATISTICS_WRITING_APP : mkvmerge v8.1.0 ('Psychedelic Postcard') 32bit
_STATISTICS_WRITING_DATE_UTC : 2015-08-12 19:49:32
_STATISTICS_TAGS : BPS DURATION NUMBER_OF_FRAMES NUMBER_OF_BYTES
Video
ID : 1
Format : AVC
Format/Info : Advanced Video Codec
Format profile : High@L4.1
Format settings, CABAC : Yes
Format settings, ReFrames : 7 frames
Codec ID : V_MPEG4/ISO/AVC
Duration : 1h 13mn
Bit rate : 2 500 Kbps
Width : 720 pixels
Height : 552 pixels
Display aspect ratio : 4:3
Frame rate mode : Constant
Frame rate : 25.000 fps
Color space : YUV
Chroma subsampling : 4:2:0
Bit depth : 8 bits
Scan type : Progressive
Bits/(Pixel*Frame) : 0.252
Stream size : 1.26 GiB (90%)
Title : 1956 Без вести пропавший
Writing library : x264 core 146 r2538 121396c
Encoding settings : cabac=1 / ref=8 / deblock=1:-1:-1 / analyse=0x3:0x113 / me=umh / subme=11 / psy=1 / psy_rd=1.15:0.25 / mixed_ref=1 / me_range=24 / chroma_me=1 / trellis=2 / 8x8dct=1 / cqm=0 / deadzone=21,11 / fast_pskip=0 / chroma_qp_offset=-4 / threads=12 / lookahead_threads=3 / sliced_threads=0 / nr=0 / decimate=0 / interlaced=0 / bluray_compat=0 / constrained_intra=0 / bframes=12 / b_pyramid=1 / b_adapt=2 / b_bias=0 / direct=3 / weightb=1 / open_gop=0 / weightp=2 / keyint=250 / keyint_min=25 / scenecut=40 / intra_refresh=0 / rc_lookahead=50 / rc=2pass / mbtree=1 / bitrate=2500 / ratetol=1.0 / qcomp=0.60 / qpmin=0 / qpmax=69 / qpstep=4 / cplxblur=20.0 / qblur=0.5 / vbv_maxrate=14000 / vbv_bufsize=14000 / nal_hrd=none / filler=0 / ip_ratio=1.40 / aq=1:1.00
Language : Russian
Default : Yes
Forced : No
Audio
ID : 2
Format : AC-3
Format/Info : Audio Coding 3
Mode extension : CM (complete main)
Format settings, Endianness : Big
Codec ID : A_AC3
Duration : 1h 13mn
Bit rate mode : Constant
Bit rate : 224 Kbps
Channel(s) : 2 channels
Channel positions : Front: L R
Sampling rate : 48.0 KHz
Bit depth : 16 bits
Compression mode : Lossy
Stream size : 118 MiB (8%)
Language : Russian
Default : Yes
Forced : No
Menu
00:00:00.000 : en:Chapter 01
00:09:19.720 : en:Chapter 02
00:12:33.440 : en:Chapter 03
00:16:14.800 : en:Chapter 04
00:23:47.040 : en:Chapter 05
00:29:34.040 : en:Chapter 06
00:35:48.960 : en:Chapter 07
00:42:13.360 : en:Chapter 08
00:48:05.760 : en:Chapter 09
00:55:47.280 : en:Chapter 10
01:02:20.160 : en:Chapter 11
01:05:52.760 : en:Chapter 12





   Похожие торренты   Торрент   Размер 
В этой теме нет новых непрочитанных сообщений. Без вести пропавший (1956) DVDRip

47 | 17

1.37 ГБ

В этой теме нет новых непрочитанных сообщений. Без вести пропавший (1956) DVDRip от New-Team

0 | 4

745.03 МБ

В этой теме нет новых непрочитанных сообщений. Без вести пропавший (1956) DVDRip от New-Team

0 | 1

1.09 ГБ

В этой теме нет новых непрочитанных сообщений. Без вести пропавший (1956) DVDRip-AVC от New-Team

0 | 0

1.09 ГБ

В этой теме нет новых непрочитанных сообщений. Пропавший без вести / Missing (1982) DVDRip | D, P

61 | 21

1.46 ГБ

В этой теме нет новых непрочитанных сообщений. Пропавший без вести (2010) WEBRip-AVC

3 | 1

746.56 МБ

В этой теме нет новых непрочитанных сообщений. Пропавший без вести (2010) SATRip

11 | 4

1.12 ГБ




Вы не можете начинать темы
Вы не можете отвечать на сообщения
Вы не можете редактировать свои сообщения
Вы не можете удалять свои сообщения
Вы не можете добавлять вложения

Перейти:  
Для Мосгорсуда, Роскомнадзора и рекламодателей: mosgorsud-torrent[собачка]yandex.ru
 Вход
ppkBB3cker v.2 © 2008-2014 @ PPK
[ Time : 0.041s | 17 Queries | GZIP : Off ]

cron