img image001 image001 image001 image001 image001 image001 image001 image001 image001 image001 image001 image001 image001 image001 image001

Planets Sun Sun Sun
Статистика раздачи
Автор: Nickolas3434 | Размер: 1.46 ГБ | Добавлен: 14 авг 2015
Раздают: 151    Качают: 44
Скачать торрент
Скачать торрент
Описание торрента

СообщениеДобавлено: 14 авг 2015 


Оригинальное название: Трест, который лопнул
Год выпуска: 1982
Жанр: Музыкальный, комедия, приключения, экранизация
Выпущено: СССР, Одесская киностудия
Режиссер: Александр Павловский
В ролях: Регимантас Адомайтис, Николай Караченцов, Михаил Срибный, Виктор Ильичёв, Юрий Волович, Леонид Куравлёв, Борис Новиков, Михаил Светин, Владимир Басов, Павел Винник, Лев Перфилов, Геннадий Ялович, Михаил Муромов, Ирина Понаровская, Виталий Шаповалов, Всеволод Абдулов, Борис Боровский, Юрий Мажуга, Елена Аминова, Тамара Яценко, Анатолий Падука, Олег Федулов, Евгений Кулешов, Вадим Александров, Юрий Вотяков, Владимир Коровкин, Нина Ильина, Ингрид Андринь, Франческа Переплетчикова, Александр Павловский, Станислав Пеньков
О фильме: Мюзикл в 3-х сериях, созданный по мотивам юмористических рассказов О'Генри "Поросячья этика", "Коридоры власти", "Супружество как точная наука". Приключения двух очаровательных мошенников, живущих за счет доверчивых простаков. Не все и не всегда им удается так, как они задумали первоначально, но зато сколько выдумки в их остроумном поиске хлеба насущного! Блистательный актерский ансамбль успешно помогает донести до зрителя мягкий юмор О'Генри. В фильме звучат песни на стихи Наума Олева и Леонида Филатова в исполнении Павла Смеяна и Николая Караченцова.
Качество: HDTVRip
Видео: XviD, ~ 950 Кбит/с, 704x528
Аудио: MP3, 2 ch, 128 Кбит/с
Размер: 1.46 ГБ
Продолжительность: 3 х ~ 01:05:00
Язык: Русский
Общее
Полное имя : Trest.kotoryj.lopnul.1982.XviD.HDTVRip.by.GeneralFilmSerija.01.avi
Формат : AVI
Формат/Информация : Audio Video Interleave
Размер файла : 497 Мбайт
Продолжительность : 1 ч. 3 м.
Общий поток : 1089 Кбит/сек
Программа кодирования : VirtualDubMod 1.5.10.3 | www.virtualdub-fr.org || (build 2550/release)
Библиотека кодирования : VirtualDubMod build 2550/release
Видео
Идентификатор : 0
Формат : MPEG-4 Visual
Профиль формата : Advanced Simple@L5
Параметр BVOP формата : 1
Параметр QPel формата : Нет
Параметр GMC формата : Без точки перехода
Параметр матрицы формата : Выборочная
Идентификатор кодека : XVID
Идентификатор кодека/Подсказка : XviD
Продолжительность : 1 ч. 3 м.
Битрейт : 951 Кбит/сек
Ширина : 704 пикселя
Высота : 528 пикселей
Соотношение сторон : 4:3
Частота кадров : 25,000 кадров/сек
Цветовое пространство : YUV
Субдискретизация насыщенности : 4:2:0
Битовая глубина : 8 бит
Тип развёртки : Прогрессивная
Метод сжатия : С потерями
Бит/(Пиксели*Кадры) : 0.102
Размер потока : 435 Мбайт (87%)
Библиотека кодирования : XviD 73
Аудио
Идентификатор : 1
Формат : MPEG Audio
Версия формата : Version 1
Профиль формата : Layer 3
Идентификатор кодека : 55
Идентификатор кодека/Подсказка : MP3
Продолжительность : 1 ч. 3 м.
Вид битрейта : Постоянный
Битрейт : 128 Кбит/сек
Каналы : 2 канала
Частота : 48,0 КГц
Метод сжатия : С потерями
Размер потока : 58,5 Мбайт (12%)
Выравнивание : Соединение по промежуткам
Продолжительность промежутка : 40 мс. (1,00 видеокадр)
Время предзагрузки промежутка : 504 мс.
Библиотека кодирования : LAME3.99r
Настройки программы : -m s -V 4 -q 0 -lowpass 17 -b 128









Релиз от:



   Похожие торренты   Торрент   Размер 
В этой теме нет новых непрочитанных сообщений. Трест, который лопнул (1982) DVDRip

26 | 4

2.05 ГБ

В этой теме нет новых непрочитанных сообщений. Трест, который лопнул (1982) DVDRip от FREEISLAND

36 | 7

4.1 ГБ

В этой теме нет новых непрочитанных сообщений. О'Генри - Трест, который лопнул (2006) MP3

54 | 3

612.77 МБ

В этой теме нет новых непрочитанных сообщений. Операция «Трест» (1967) DVDRip-AVC от ExKinoRay

50 | 3

5.89 ГБ

В этой теме нет новых непрочитанных сообщений. Кукарача (1982) DVDRip - Generalfilm

2 | 12

1.46 ГБ

В этой теме нет новых непрочитанных сообщений. Аустерия / Austeria (1982) HDRip от Generalfilm

0 | 2

1.37 ГБ

В этой теме нет новых непрочитанных сообщений. Солнечный ветер [01-06 из 06] (1982) DVDRip от Generalfilm

2 | 17

4.29 ГБ




Вы не можете начинать темы
Вы не можете отвечать на сообщения
Вы не можете редактировать свои сообщения
Вы не можете удалять свои сообщения
Вы не можете добавлять вложения

Перейти:  
Для Мосгорсуда, Роскомнадзора и рекламодателей: mosgorsud-torrent[собачка]yandex.ru
 Вход
ppkBB3cker v.2 © 2008-2014 @ PPK
[ Time : 0.029s | 16 Queries | GZIP : Off ]

Торрент трекер RUTOR.IN, Не можете зайти на rutor.org? Какой новый адрес рутор? Какое зеркало рутор? Не работает rutor.org и зеркала? Тогда наш торрент специально для вас. Rutor.in неофициальное зеркало rutor. В случае если у Вас заблокирован rutor или вдруг Вы не можете на него зайти, то Вы без труда сможете скачать бесплатно и без рекламы последние новинки кино, игр, сериалов и прочего у нас, на Rutor.in. Не нужно использовать прокси, чтобы зайти на рутор, достаточно воспользоваться нашим ресурсом. Все новые фильмы, игры, сериалы, книги и музыка за 2013 и 2014 годы через торрент бесплатно. Скачивайте фильмы в хорошем качестве, игры для пк, xbox, playstation без регистрации. У нас вы найдете новые Зарубежные сериалы и Русские сериалы 2013, 2014, 2015 годов. Оставайтесь с нами, качайте любимые фильмы, игры, сериалы, книги и музыку.
cron