img image001 image001 image001 image001 image001 image001 image001 image001 image001 image001 image001 image001 image001 image001 image001

Planets Sun Sun Sun
Статистика раздачи
Автор: Nickolas3434 | Размер: 1.37 ГБ | Добавлен: 14 авг 2015
Раздают: 72    Качают: 20
Скачать торрент
Скачать торрент
Описание торрента

СообщениеДобавлено: 14 авг 2015 


Информация о фильме
Название: Без вести пропавший
Год выхода: 1956
Жанр: Военный
Продолжительность: 01:13:52
Режиссер: Исаак Шмарук
В ролях: Владимир Васильев, Борис Карлаш-Вербицкий, Сергей Голованов, Олег Голубицкий, Байба Индриксоне, Михаил Кузнецов, Лаврентий Масоха, Наталия Ужвий, Виктор Добровольский, Софья Гиацинтова, Юрий Чекулаев, Николай Дупак
О фильме:1942 год. В одном из боев раненый советский офицер, воспользовавшись документами умирающего чешского врача, служившего в фашисткой армии, добирается до Словакии и разыскивает мать погибшего. Здесь он находит временный приют и поддержку, вступает в интернациональный партизанский отряд и вскоре становится его командиром...
Киевская киностудия (с 1957 года - киностудия имени А.Довженко).

Файл
Кодек: XviD
Качество: DVDRip
Видео: Xvid, 720x552, 25fps, 2419 kbps
Звук: Dolby AC3, 48000 Hz, 2ch, 224 kbps
General
Complete name : F:Torrent 21956.Bez.vesti,.XviD.renta23.avi
Format : AVI
Format/Info : Audio Video Interleave
File size : 1.37 GiB
Duration : 1h 13mn
Overall bit rate : 2 653 Kbps
Writing application : VirtualDubMod 1.5.10.3 | www.virtualdub-fr.org || (build 2550/release)
Writing library : VirtualDubMod build 2550/release
Video
ID : 0
Format : MPEG-4 Visual
Format profile : Advanced Simple@L5
Format settings, BVOP : 1
Format settings, QPel : No
Format settings, GMC : No warppoints
Format settings, Matrix : Default (MPEG)
Codec ID : XVID
Codec ID/Hint : XviD
Duration : 1h 13mn
Bit rate : 2 419 Kbps
Width : 720 pixels
Height : 552 pixels
Display aspect ratio : 4:3
Frame rate : 25.000 fps
Color space : YUV
Chroma subsampling : 4:2:0
Bit depth : 8 bits
Scan type : Progressive
Compression mode : Lossy
Bits/(Pixel*Frame) : 0.243
Stream size : 1.25 GiB (91%)
Writing library : XviD 1.2.1 (UTC 2008-12-04)
Audio
ID : 1
Format : AC-3
Format/Info : Audio Coding 3
Mode extension : CM (complete main)
Format settings, Endianness : Big
Codec ID : 2000
Duration : 1h 13mn
Bit rate mode : Constant
Bit rate : 224 Kbps
Channel(s) : 2 channels
Channel positions : Front: L R
Sampling rate : 48.0 KHz
Bit depth : 16 bits
Compression mode : Lossy
Stream size : 118 MiB (8%)
Alignment : Split accross interleaves
Interleave, duration : 40 ms (1.00 video frame)
Interleave, preload duration : 500 ms





   Похожие торренты   Торрент   Размер 
В этой теме нет новых непрочитанных сообщений. Без вести пропавший (1956) DVDRip-AVC

53 | 11

1.41 ГБ

В этой теме нет новых непрочитанных сообщений. Пропавший без вести / Missing (1982) DVDRip | D, P

61 | 21

1.46 ГБ

В этой теме нет новых непрочитанных сообщений. Пропавший без вести (2010) SATRip

11 | 4

1.12 ГБ

В этой теме нет новых непрочитанных сообщений. Пропавший без вести [01-02 из 04] (2013) HDTVRip от Files-x

6 | 1

2.15 ГБ

В этой теме нет новых непрочитанных сообщений. Пропавший без вести [01 из 04] (2013) HDTVRip-AVC от Files-x

62 | 4

2.69 ГБ

В этой теме нет новых непрочитанных сообщений. Пропавший без вести [01-04 из 04] (2013) SATRip от РиперАМ

145 | 12

2 ГБ

В этой теме нет новых непрочитанных сообщений. Пропавший без вести / The Missing [s01] (2014) HDTVRip | L2

242 | 107

4.55 ГБ




Вы не можете начинать темы
Вы не можете отвечать на сообщения
Вы не можете редактировать свои сообщения
Вы не можете удалять свои сообщения
Вы не можете добавлять вложения

Перейти:  
Для Мосгорсуда, Роскомнадзора и рекламодателей: mosgorsud-torrent[собачка]yandex.ru
 Вход
ppkBB3cker v.2 © 2008-2014 @ PPK
[ Time : 0.043s | 14 Queries | GZIP : Off ]

Торрент трекер RUTOR.IN, Не можете зайти на rutor.org? Какой новый адрес рутор? Какое зеркало рутор? Не работает rutor.org и зеркала? Тогда наш торрент специально для вас. Rutor.in неофициальное зеркало rutor. В случае если у Вас заблокирован rutor или вдруг Вы не можете на него зайти, то Вы без труда сможете скачать бесплатно и без рекламы последние новинки кино, игр, сериалов и прочего у нас, на Rutor.in. Не нужно использовать прокси, чтобы зайти на рутор, достаточно воспользоваться нашим ресурсом. Все новые фильмы, игры, сериалы, книги и музыка за 2013 и 2014 годы через торрент бесплатно. Скачивайте фильмы в хорошем качестве, игры для пк, xbox, playstation без регистрации. У нас вы найдете новые Зарубежные сериалы и Русские сериалы 2013, 2014, 2015 годов. Оставайтесь с нами, качайте любимые фильмы, игры, сериалы, книги и музыку.