img image001 image001 image001 image001 image001 image001 image001 image001 image001 image001 image001 image001 image001 image001 image001

Planets Sun Sun Sun
Статистика раздачи
Автор: Nickolas3434 | Размер: 2.18 ГБ | Добавлен: 15 авг 2015
Раздают: 61    Качают: 10
Скачать торрент
Скачать торрент
Описание торрента

СообщениеДобавлено: 15 авг 2015 

Страна: СССР
Производство: Мосфильм
Жанр: драма, военный
Год выпуска: 1949
Продолжительность: 02:58:55 (01:34:02 + 01:24:53)
Перевод: Не требуется
Cубтитры: нет
Оригинальная аудиодорожка: русский
Режиссер: Владимир Петров
В ролях:Алексей Дикий, Максим Штраух, Михаил Кварелашвили, Юрий Толубеев, Михаил Державин (ст.), Александр Крюков, Гарри Мушегян, Николай Рыжов, Владимир Соловьёв, Виктор Хохряков, Николай Дорохин, Михаил Воробьёв, Семён Хмельницкий, Гавриил Белов, Юрий Шумский, Василий Меркурьев, Борис Ливанов, Николай Колесников (III), Николай Симонов, Василий Орлов, Сергей Бржевский, Николай Плотников, Борис Добронравов, Борис Смирнов, Леонид Князев, Владимир Головин (II), Алексей Краснопольский, Михаил Названов, Николай Крючков, Александр Антонов, Николай Черкасов, Виктор Станицын, Константин Михайлов, Николай Раевский (II), Павел Массальский, Михаил Астангов, Николай Комиссаров, Борис Свобода, Владимир Гайдаров, Владимир Всеволодов, Евгений Калужский, Николай Николаевский, Николай Рыбников (II), Владимир Чернявский, Михаил Гаркави, Петр Аржанов, Ростислав Плятт...
Полный список актёров
Описание: В основе сюжета художественно-документальной ленты - героическая оборона Сталинграда (1942) во время Великой Отечественной войны.
Лето 1942 года. Фашисты стремятся прорвать фронт советских войск на юго-западном направлении и захватить Сталинград. Город охвачен пламенем, под бомбами гибнут женщины, старики, дети. Но защитникам Сталинграда удается сдержать наступление гитлеровских полчищ. Верховное главнокомандование Советской армии готовит контрудар. 19 ноября 1942 года Сталин отдает приказ о наступлении, и в результате стремительных действий советских войск в стальном кольце оказывается 22 дивизии противника. Немецко-фашистское командование выбрасывает белый флаг.
Фильм удостоен Сталинской премии I степени (1950).





Источник: 2хDVD9 (немецкое издание)
Качество видео: DVDRip
Формат видео: AVI
Видео: 688x512 (4:3), 25 fps, XviD ~ 1541 kbps avg, 0.175 bit/pixel
Аудио: 48 kHz, Dolby Digital AC3 2.0, 192 kbps
Раздача от:
Общее
Полное имя : Stalingradskaya.bitva.1949.DVDRip_[New-team]_by_AVP_StudioСерия 1.avi
Формат : AVI
Формат/Информация : Audio Video Interleave
Размер файла : 1,14 Гбайт
Продолжительность : 1 ч. 34 м.
Общий поток : 1742 Кбит/сек
Программа кодирования : VirtualDubMod 1.5.10.3 | www.virtualdub-fr.org || (build 2550/release)
Библиотека кодирования : VirtualDubMod build 2550/release
Видео
Идентификатор : 0
Формат : MPEG-4 Visual
Профиль формата : Advanced Simple@L5
Параметр BVOP формата : 1
Параметр QPel формата : Нет
Параметр GMC формата : Без точки перехода
Параметр матрицы формата : Выборочная
Идентификатор кодека : XVID
Идентификатор кодека/Подсказка : XviD
Продолжительность : 1 ч. 34 м.
Битрейт : 1541 Кбит/сек
Ширина : 688 пикселей
Высота : 512 пикселей
Соотношение сторон : 4:3
Частота кадров : 25,000 кадров/сек
Цветовое пространство : YUV
Субдискретизация насыщенности : 4:2:0
Битовая глубина : 8 бит
Тип развёртки : Прогрессивная
Метод сжатия : С потерями
Бит/(Пиксели*Кадры) : 0.175
Размер потока : 1,01 Гбайт (88%)
Библиотека кодирования : XviD 73
Аудио
Идентификатор : 1
Формат : AC-3
Формат/Информация : Audio Coding 3
Расширение режима : CM (complete main)
Параметр Endianness формата : Big
Идентификатор кодека : 2000
Продолжительность : 1 ч. 33 м.
Вид битрейта : Постоянный
Битрейт : 192 Кбит/сек
Каналы : 2 канала
Расположение каналов : Front: L R
Частота : 48,0 КГц
Метод сжатия : С потерями
Размер потока : 128 Мбайт (11%)
Выравнивание : Разделение по промежуткам
Продолжительность промежутка : 40 мс. (1,01 видеокадр)
Время предзагрузки промежутка : 500 мс





   Похожие торренты   Торрент   Размер 
В этой теме нет новых непрочитанных сообщений. Сталинградская битва (1949) DVDRip от New-Team

66 | 13

1.46 ГБ

В этой теме нет новых непрочитанных сообщений. Сталинградская битва (1949) DVDRip-AVC от New-Team

229 | 23

2.9 ГБ

В этой теме нет новых непрочитанных сообщений. Сталинградская битва (1949) DVDRip от Русфильм

30 | 5

2.05 ГБ

В этой теме нет новых непрочитанных сообщений. Сталинградская Битва (2012) DVBRip

46 | 4

1.46 ГБ

В этой теме нет новых непрочитанных сообщений. Сталинградская битва [эфир от 02.02.2013] SATRip

6 | 1

1003.05 МБ

В этой теме нет новых непрочитанных сообщений. Падение Берлина (1949) DVDRip от New-Team

189 | 16

1.46 ГБ

В этой теме нет новых непрочитанных сообщений. Счастливый рейс (1949) DVDRip от New-Team

29 | 8

743.99 МБ




Вы не можете начинать темы
Вы не можете отвечать на сообщения
Вы не можете редактировать свои сообщения
Вы не можете удалять свои сообщения
Вы не можете добавлять вложения

Перейти:  
Для Мосгорсуда, Роскомнадзора и рекламодателей: mosgorsud-torrent[собачка]yandex.ru
 Вход
ppkBB3cker v.2 © 2008-2014 @ PPK
[ Time : 0.075s | 15 Queries | GZIP : Off ]

Торрент трекер RUTOR.IN, Не можете зайти на rutor.org? Какой новый адрес рутор? Какое зеркало рутор? Не работает rutor.org и зеркала? Тогда наш торрент специально для вас. Rutor.in неофициальное зеркало rutor. В случае если у Вас заблокирован rutor или вдруг Вы не можете на него зайти, то Вы без труда сможете скачать бесплатно и без рекламы последние новинки кино, игр, сериалов и прочего у нас, на Rutor.in. Не нужно использовать прокси, чтобы зайти на рутор, достаточно воспользоваться нашим ресурсом. Все новые фильмы, игры, сериалы, книги и музыка за 2013 и 2014 годы через торрент бесплатно. Скачивайте фильмы в хорошем качестве, игры для пк, xbox, playstation без регистрации. У нас вы найдете новые Зарубежные сериалы и Русские сериалы 2013, 2014, 2015 годов. Оставайтесь с нами, качайте любимые фильмы, игры, сериалы, книги и музыку.