img image001 image001 image001 image001 image001 image001 image001 image001 image001 image001 image001 image001 image001 image001 image001

Planets Sun Sun Sun
Статистика раздачи
Автор: Nickolas3434 | Размер: 2.9 ГБ | Добавлен: 15 авг 2015
Раздают: 229    Качают: 23
Скачать торрент
Скачать торрент
Описание торрента

СообщениеДобавлено: 15 авг 2015 

Страна: СССР
Производство: Мосфильм
Жанр: драма, военный
Год выпуска: 1949
Продолжительность: 02:58:55 (01:34:02 + 01:24:53)
Перевод: Не требуется
Cубтитры: нет
Оригинальная аудиодорожка: русский
Режиссер: Владимир Петров
В ролях:Алексей Дикий, Максим Штраух, Михаил Кварелашвили, Юрий Толубеев, Михаил Державин (ст.), Александр Крюков, Гарри Мушегян, Николай Рыжов, Владимир Соловьёв, Виктор Хохряков, Николай Дорохин, Михаил Воробьёв, Семён Хмельницкий, Гавриил Белов, Юрий Шумский, Василий Меркурьев, Борис Ливанов, Николай Колесников (III), Николай Симонов, Василий Орлов, Сергей Бржевский, Николай Плотников, Борис Добронравов, Борис Смирнов, Леонид Князев, Владимир Головин (II), Алексей Краснопольский, Михаил Названов, Николай Крючков, Александр Антонов, Николай Черкасов, Виктор Станицын, Константин Михайлов, Николай Раевский (II), Павел Массальский, Михаил Астангов, Николай Комиссаров, Борис Свобода, Владимир Гайдаров, Владимир Всеволодов, Евгений Калужский, Николай Николаевский, Николай Рыбников (II), Владимир Чернявский, Михаил Гаркави, Петр Аржанов, Ростислав Плятт...
Полный список актёров
Описание: В основе сюжета художественно-документальной ленты - героическая оборона Сталинграда (1942) во время Великой Отечественной войны.
Лето 1942 года. Фашисты стремятся прорвать фронт советских войск на юго-западном направлении и захватить Сталинград. Город охвачен пламенем, под бомбами гибнут женщины, старики, дети. Но защитникам Сталинграда удается сдержать наступление гитлеровских полчищ. Верховное главнокомандование Советской армии готовит контрудар. 19 ноября 1942 года Сталин отдает приказ о наступлении, и в результате стремительных действий советских войск в стальном кольце оказывается 22 дивизии противника. Немецко-фашистское командование выбрасывает белый флаг.
Фильм удостоен Сталинской премии I степени (1950).






Источник: 2хDVD9 (немецкое издание)
Качество видео: DVDRip-AVC
Формат видео: MKV
Видео: 696->760x570 (4:3), 25 fps, H264 ~ 1940 kbps avg, 0.196 bit/pixel
Аудио: 48 kHz, Dolby Digital AC3 2.0, 192 kbps Русский
Аудио: 48 kHz, Dolby Digital AC3 2.0, 192 kbps Немецкий
Раздача от:
Общее
Полное имя : Stalingradskaya.bitva.1949.DVDRip-AVC_[New-team]_by_AVP_StudioСерия 2.mkv
Формат : Matroska
Версия формата : Version 4 / Version 2
Размер файла : 1,38 Гбайт
Продолжительность : 1 ч. 24 м.
Общий поток : 2323 Кбит/сек
Дата кодирования : UTC 2015-08-14 11:44:31
Программа кодирования : mkvmerge v8.2.0 ('World of Adventure') 64bit
Библиотека кодирования : libebml v1.3.1 + libmatroska v1.4.2
DURATION : 01:24:04.992000000
NUMBER_OF_FRAMES : 157656
NUMBER_OF_BYTES : 121079808
_STATISTICS_WRITING_APP : mkvmerge v8.2.0 ('World of Adventure') 64bit
_STATISTICS_WRITING_DATE_UTC : 2015-08-14 11:44:31
_STATISTICS_TAGS : BPS DURATION NUMBER_OF_FRAMES NUMBER_OF_BYTES
Видео
Идентификатор : 1
Формат : AVC
Формат/Информация : Advanced Video Codec
Профиль формата : High@L4.1
Параметр CABAC формата : Да
Параметр ReFrames формата : 8 кадров
Идентификатор кодека : V_MPEG4/ISO/AVC
Продолжительность : 1 ч. 24 м.
Битрейт : 1940 Кбит/сек
Ширина : 696 пикселей
Высота : 570 пикселей
Соотношение сторон : 4:3
Режим частоты кадров : Постоянный
Частота кадров : 25,000 кадров/сек
Цветовое пространство : YUV
Субдискретизация насыщенности : 4:2:0
Битовая глубина : 8 бит
Тип развёртки : Прогрессивная
Бит/(Пиксели*Кадры) : 0.196
Размер потока : 1,12 Гбайт (81%)
Библиотека кодирования : x264 core 130 r2273 b3065e6
Настройки программы : cabac=1 / ref=8 / deblock=1:-2:-1 / analyse=0x3:0x113 / me=umh / subme=10 / psy=1 / psy_rd=1.00:0.05 / mixed_ref=1 / me_range=32 / chroma_me=1 / trellis=2 / 8x8dct=1 / cqm=0 / deadzone=21,11 / fast_pskip=0 / chroma_qp_offset=-3 / threads=6 / lookahead_threads=1 / sliced_threads=0 / nr=0 / decimate=0 / interlaced=0 / bluray_compat=0 / constrained_intra=0 / bframes=8 / b_pyramid=2 / b_adapt=2 / b_bias=0 / direct=3 / weightb=1 / open_gop=0 / weightp=2 / keyint=250 / keyint_min=25 / scenecut=40 / intra_refresh=0 / rc=2pass / mbtree=0 / bitrate=1940 / ratetol=1.0 / qcomp=0.60 / qpmin=0 / qpmax=69 / qpstep=4 / cplxblur=20.0 / qblur=0.5 / ip_ratio=1.40 / pb_ratio=1.30 / aq=1:1.00
Default : Да
Forced : Нет
Аудио #1
Идентификатор : 2
Формат : AC-3
Формат/Информация : Audio Coding 3
Расширение режима : CM (complete main)
Параметр Endianness формата : Big
Идентификатор кодека : A_AC3
Продолжительность : 1 ч. 24 м.
Вид битрейта : Постоянный
Битрейт : 192 Кбит/сек
Каналы : 2 канала
Расположение каналов : Front: L R
Частота : 48,0 КГц
Метод сжатия : С потерями
Размер потока : 117 Мбайт (8%)
Default : Да
Forced : Нет
Аудио #2
Идентификатор : 3
Формат : AC-3
Формат/Информация : Audio Coding 3
Расширение режима : CM (complete main)
Параметр Endianness формата : Big
Идентификатор кодека : A_AC3
Продолжительность : 1 ч. 24 м.
Вид битрейта : Постоянный
Битрейт : 192 Кбит/сек
Каналы : 2 канала
Расположение каналов : Front: L R
Частота : 48,0 КГц
Метод сжатия : С потерями
Размер потока : 117 Мбайт (8%)
Default : Нет
Forced : Нет





   Похожие торренты   Торрент   Размер 
В этой теме нет новых непрочитанных сообщений. Сталинградская битва (1949) DVDRip от New-Team

66 | 13

1.46 ГБ

В этой теме нет новых непрочитанных сообщений. Сталинградская битва (1949) DVDRip от New-Team

61 | 10

2.18 ГБ

В этой теме нет новых непрочитанных сообщений. Сталинградская битва (1949) DVDRip от Русфильм

30 | 5

2.05 ГБ

В этой теме нет новых непрочитанных сообщений. Сталинградская Битва (2012) DVBRip

46 | 4

1.46 ГБ

В этой теме нет новых непрочитанных сообщений. Сталинградская битва [эфир от 02.02.2013] SATRip

6 | 1

1003.05 МБ

В этой теме нет новых непрочитанных сообщений. Встреча на Эльбе (1949) DVDRip-AVC от New-Team

23 | 8

1.46 ГБ

В этой теме нет новых непрочитанных сообщений. Счастливого плавания! (1949) DVDRip от New-Team

12 | 4

1.09 ГБ




Вы не можете начинать темы
Вы не можете отвечать на сообщения
Вы не можете редактировать свои сообщения
Вы не можете удалять свои сообщения
Вы не можете добавлять вложения

Перейти:  
Для Мосгорсуда, Роскомнадзора и рекламодателей: mosgorsud-torrent[собачка]yandex.ru
 Вход
ppkBB3cker v.2 © 2008-2014 @ PPK
[ Time : 0.065s | 16 Queries | GZIP : Off ]

Торрент трекер RUTOR.IN, Не можете зайти на rutor.org? Какой новый адрес рутор? Какое зеркало рутор? Не работает rutor.org и зеркала? Тогда наш торрент специально для вас. Rutor.in неофициальное зеркало rutor. В случае если у Вас заблокирован rutor или вдруг Вы не можете на него зайти, то Вы без труда сможете скачать бесплатно и без рекламы последние новинки кино, игр, сериалов и прочего у нас, на Rutor.in. Не нужно использовать прокси, чтобы зайти на рутор, достаточно воспользоваться нашим ресурсом. Все новые фильмы, игры, сериалы, книги и музыка за 2013 и 2014 годы через торрент бесплатно. Скачивайте фильмы в хорошем качестве, игры для пк, xbox, playstation без регистрации. У нас вы найдете новые Зарубежные сериалы и Русские сериалы 2013, 2014, 2015 годов. Оставайтесь с нами, качайте любимые фильмы, игры, сериалы, книги и музыку.
cron