img image001 image001 image001 image001 image001 image001 image001 image001 image001 image001 image001 image001 image001 image001 image001

Planets Sun Sun Sun
Статистика раздачи
Автор: Nickolas3434 | Размер: 745.4 МБ | Добавлен: 16 авг 2015
Раздают: 24    Качают: 2
Скачать торрент
Скачать торрент
Описание торрента

СообщениеДобавлено: 16 авг 2015 

Страна: СССР
Производство: Ленфильм
Жанр: драма, биография
Год выпуска: 1949
Продолжительность: 01:36:06
Перевод: Не требуется
Cубтитры: нет
Оригинальная аудиодорожка: русский
Режиссер: Григорий Рошаль
В ролях:
Александр Борисов, Нина Алисова, Владимир Честноков, Фёдор Никитин, Владимир Балашов, Николай Плотников, Марьяна Сафонова, Иван Дмитриев, Григорий Шпигель, Василий Софронов, Георгий Бельникевич, Николай Черкасов...
Полный список актёров
Описание:
Иван Петрович Павлов (1849-1936г.г.) - выдающийся ученый-физиолог, нобелевский лауреат, создатель учения о высшей нервной деятельности. Фильм рассказывает о жизни и научной деятельности Павлова с первых его шагов в науке до сенсационных открытий, сыгравших огромную роль в развитии медицины и психологии.





Источник: DVD5 R5
Качество видео: DVDRip
Формат видео: AVI
Видео: 576x432 (4:3), 25 fps, XviD ~ 947 kbps avg, 0.152 bit/pixel
Аудио: 48 kHz, MP3 2.0, 128 kbps
Раздача от:
Общее
Полное имя : Akademik.Ivan.Pavlov.1949.DVDRip-745_[New-team]_by_AVP_Studio.avi
Формат : AVI
Формат/Информация : Audio Video Interleave
Размер файла : 745 Мбайт
Продолжительность : 1 ч. 36 м.
Общий поток : 1085 Кбит/сек
Программа кодирования : VirtualDubMod 1.5.10.3 | www.virtualdub-fr.org || (build 2550/release)
Библиотека кодирования : VirtualDubMod build 2550/release
Видео
Идентификатор : 0
Формат : MPEG-4 Visual
Профиль формата : Advanced Simple@L5
Параметр BVOP формата : 1
Параметр QPel формата : Нет
Параметр GMC формата : Без точки перехода
Параметр матрицы формата : Выборочная
Идентификатор кодека : XVID
Идентификатор кодека/Подсказка : XviD
Продолжительность : 1 ч. 36 м.
Битрейт : 947 Кбит/сек
Ширина : 576 пикселей
Высота : 432 пикселя
Соотношение сторон : 4:3
Частота кадров : 25,000 кадров/сек
Цветовое пространство : YUV
Субдискретизация насыщенности : 4:2:0
Битовая глубина : 8 бит
Тип развёртки : Прогрессивная
Метод сжатия : С потерями
Бит/(Пиксели*Кадры) : 0.152
Размер потока : 651 Мбайт (87%)
Библиотека кодирования : XviD 73
Аудио
Идентификатор : 1
Формат : MPEG Audio
Версия формата : Version 1
Профиль формата : Layer 3
Идентификатор кодека : 55
Идентификатор кодека/Подсказка : MP3
Продолжительность : 1 ч. 36 м.
Вид битрейта : Постоянный
Битрейт : 128 Кбит/сек
Каналы : 2 канала
Частота : 48,0 КГц
Метод сжатия : С потерями
Размер потока : 88,0 Мбайт (12%)
Выравнивание : Соединение по промежуткам
Продолжительность промежутка : 40 мс. (1,00 видеокадр)
Время предзагрузки промежутка : 504 мс.
Библиотека кодирования : LAME3.99r
Настройки программы : -m s -V 4 -q 2 -lowpass 17 -b 128





   Похожие торренты   Торрент   Размер 
В этой теме нет новых непрочитанных сообщений. Академик Иван Павлов (1949) DVDRip от New-Team

17 | 8

1.46 ГБ

В этой теме нет новых непрочитанных сообщений. Академик Иван Павлов (1949) DVDRip-AVC от New-Team

23 | 6

1.46 ГБ

В этой теме нет новых непрочитанных сообщений. Александр Попов (1949) DVDRip от New-Team

16 | 6

1.46 ГБ

В этой теме нет новых непрочитанных сообщений. Встреча на Эльбе (1949) DVDRip от New-Team

21 | 8

744.18 МБ

В этой теме нет новых непрочитанных сообщений. Встреча на Эльбе (1949) DVDRip-AVC от New-Team

23 | 8

1.46 ГБ

В этой теме нет новых непрочитанных сообщений. Константин Заслонов (1949) DVDRip от New-Team

28 | 5

745.36 МБ

В этой теме нет новых непрочитанных сообщений. Александр Попов (1949) DVDRip от New-Team

6 | 3

745.34 МБ




Вы не можете начинать темы
Вы не можете отвечать на сообщения
Вы не можете редактировать свои сообщения
Вы не можете удалять свои сообщения
Вы не можете добавлять вложения

Перейти:  
Для Мосгорсуда, Роскомнадзора и рекламодателей: mosgorsud-torrent[собачка]yandex.ru
 Вход
ppkBB3cker v.2 © 2008-2014 @ PPK
[ Time : 63.380s | 17 Queries | GZIP : Off ]
CGP output time : 0.027s | 5 Queries | GZIP : Off

Торрент трекер RUTOR.IN, Не можете зайти на rutor.org? Какой новый адрес рутор? Какое зеркало рутор? Не работает rutor.org и зеркала? Тогда наш торрент специально для вас. Rutor.in неофициальное зеркало rutor. В случае если у Вас заблокирован rutor или вдруг Вы не можете на него зайти, то Вы без труда сможете скачать бесплатно и без рекламы последние новинки кино, игр, сериалов и прочего у нас, на Rutor.in. Не нужно использовать прокси, чтобы зайти на рутор, достаточно воспользоваться нашим ресурсом. Все новые фильмы, игры, сериалы, книги и музыка за 2013 и 2014 годы через торрент бесплатно. Скачивайте фильмы в хорошем качестве, игры для пк, xbox, playstation без регистрации. У нас вы найдете новые Зарубежные сериалы и Русские сериалы 2013, 2014, 2015 годов. Оставайтесь с нами, качайте любимые фильмы, игры, сериалы, книги и музыку.