img image001 image001 image001 image001 image001 image001 image001 image001 image001 image001 image001 image001 image001 image001 image001

Planets Sun Sun Sun
Статистика раздачи
Автор: Nickolas3434 | Размер: 2.37 ГБ | Добавлен: 18 авг 2015
Раздают: 230    Качают: 17
Скачать торрент
Скачать торрент
Описание торрента

СообщениеДобавлено: 18 авг 2015 


Информация о фильме
Название: Ночные забавы
Год выхода: 1991
Жанр: Драма
Режиссер: Владимир Краснопольский, Валерий Усков
В ролях: Евгений Евстигнеев, Александра Колкунова, Ирина Алферова, Альберт Филозов, Валентин Гафт, Мария Виноградова, Борис Юрченко, Игорь Суровцев, Ирина Цывина, Софья Левина, Махмуд Исмаилов, Елена Краснопольская, Владимир Краснопольский
О фильме: Пожилой ресторанный саксофонист ночью после работы развлекается телефонными розыгрышами, в результате чего попадает в гости к молоденькой девушке. Однако романтическое свидание оказывается необычным... О непростых отношениях между матерью и дочерью. Муж — подчиненный. Любовник — начальник. И «мудрая» взрослая дочь, которая пытается спасти репутацию отца и уличить мать, втягивает малознакомого гостя в этот фарс. Кто же больше наломает дров и как выкрутиться из щекотливой ситуации, оказавшись запертыми в маленькой квартирке? Последняя роль Евгения Евстигнеева.
Страна: СССР
Продолжительность: 01:13:22 + 01:02:10
Перевод: не требуется
Файл
Кодек: MKV
Качество: DVDRip-AVC
Видео: MPEG-4 AVC, 2050 Кбит/с, 714x574@762x574
Звук: AC3, 6 ch, 448 Кбит/с

raw [info]: 714x574p 16:15 @ 25/1 fps (cfr)
x264 [info]: using SAR=16/15
x264 [info]: using cpu capabilities: MMX2 SSE2Fast SSSE3 SSE4.2 AVX
x264 [info]: profile High, level 4.1
x264 [info]: frame I:600 Avg QP:13.18 size: 69253
x264 [info]: frame P:25012 Avg QP:17.28 size: 25914
x264 [info]: frame B:84449 Avg QP:21.63 size: 5190
====================================================================================================
Общее
Уникальный идентификатор : 207428002683263233319965573775783490525 (0x9C0D2E1F7040BFE0AA07944CCA3DF3DD)
Полное имя : D:Ночные забавы_1991-DVDRip-AVCНочные забавы-1.mkv
Формат : Matroska
Версия формата : Version 2
Размер файла : 1,28 Гбайт
Продолжительность : 1 ч. 13 м.
Общий поток : 2500 Кбит/сек
Дата кодирования : UTC 2015-08-10 23:50:32
Программа кодирования : mkvmerge v5.8.0 ('No Sleep / Pillow') built on Sep 2 2012 15:37:04
Библиотека кодирования : libebml v1.2.3 + libmatroska v1.3.0
Видео
Идентификатор : 1
Формат : AVC
Формат/Информация : Advanced Video Codec
Профиль формата : High@L4.1
Параметр CABAC формата : Да
Параметр ReFrames формата : 15 кадров
Идентификатор кодека : V_MPEG4/ISO/AVC
Продолжительность : 1 ч. 13 м.
Битрейт : 2050 Кбит/сек
Ширина : 714 пикселей
Высота : 574 пикселя
Соотношение сторон : 4:3
Соотношение сторон в оригинале : 4:3
Режим частоты кадров : Постоянный
Частота кадров : 25,000 кадров/сек
Цветовое пространство : YUV
Субдискретизация насыщенности : 4:2:0
Битовая глубина : 8 бит
Тип развёртки : Прогрессивная
Бит/(Пиксели*Кадры) : 0.200
Размер потока : 1,03 Гбайт (80%)
Библиотека кодирования : x264 core 146 r2538 121396c
Настройки программы : cabac=1 / ref=15 / deblock=1:-2:-2 / analyse=0x3:0x133 / me=umh / subme=10 / psy=1 / psy_rd=1.05:0.15 / mixed_ref=1 / me_range=32 / chroma_me=1 / trellis=2 / 8x8dct=1 / cqm=0 / deadzone=21,11 / fast_pskip=0 / chroma_qp_offset=-3 / threads=12 / lookahead_threads=2 / sliced_threads=0 / nr=0 / decimate=0 / interlaced=0 / bluray_compat=0 / constrained_intra=0 / bframes=9 / b_pyramid=2 / b_adapt=2 / b_bias=0 / direct=3 / weightb=1 / open_gop=0 / weightp=2 / keyint=250 / keyint_min=25 / scenecut=40 / intra_refresh=0 / rc_lookahead=40 / rc=2pass / mbtree=1 / bitrate=2050 / ratetol=1.0 / qcomp=0.65 / qpmin=0 / qpmax=39 / qpstep=4 / cplxblur=20.0 / qblur=0.5 / ip_ratio=1.40 / aq=1:1.00
Язык : English
Default : Да
Forced : Нет
Цветовой диапазон : Limited
Основные цвета : BT.601 PAL
Характеристики трансфера : BT.470 System B, BT.470 System G
Коэффициенты матрицы : BT.601
Аудио
Идентификатор : 2
Формат : AC-3
Формат/Информация : Audio Coding 3
Расширение режима : CM (complete main)
Параметр Endianness формата : Big
Идентификатор кодека : A_AC3
Продолжительность : 1 ч. 13 м.
Вид битрейта : Постоянный
Битрейт : 448 Кбит/сек
Каналы : 6 каналов
Расположение каналов : Front: L C R, Side: L R, LFE
Частота : 48,0 КГц
Битовая глубина : 16 бит
Метод сжатия : С потерями
Размер потока : 235 Мбайт (18%)
Язык : Russian
Default : Да
Forced : Нет

Релиз от:
Автор релиза:



   Похожие торренты   Торрент   Размер 
В этой теме нет новых непрочитанных сообщений. Ночные забавы (1991) DVDRip

8 | 4

2.19 ГБ

В этой теме нет новых непрочитанных сообщений. Ночные забавы (1991) DVDRip | Реставрация

100 | 10

1.36 ГБ

В этой теме нет новых непрочитанных сообщений. Ночные забавы (1991) DVDRip от SergV | Реставрация

93 | 16

2.28 ГБ

В этой теме нет новых непрочитанных сообщений. Ночные забавы (1991) DVD5 | Не реставрация

4 | 3

4.12 ГБ

В этой теме нет новых непрочитанных сообщений. Ночные забавы (1991) DVD5 | Сжатый

0 | 2

4.33 ГБ

В этой теме нет новых непрочитанных сообщений. Ночные забавы (1991) DVD9 | Реставрация

1 | 11

7.82 ГБ

В этой теме нет новых непрочитанных сообщений. Микаэл Таривердиев - Ночные забавы (тихая музыка) (2004) MP3 от BestSound ExKinoRay

20 | 3

139.22 МБ




Вы не можете начинать темы
Вы не можете отвечать на сообщения
Вы не можете редактировать свои сообщения
Вы не можете удалять свои сообщения
Вы не можете добавлять вложения

Перейти:  
Для Мосгорсуда, Роскомнадзора и рекламодателей: mosgorsud-torrent[собачка]yandex.ru
 Вход
ppkBB3cker v.2 © 2008-2014 @ PPK
[ Time : 0.039s | 15 Queries | GZIP : Off ]

Торрент трекер RUTOR.IN, Не можете зайти на rutor.org? Какой новый адрес рутор? Какое зеркало рутор? Не работает rutor.org и зеркала? Тогда наш торрент специально для вас. Rutor.in неофициальное зеркало rutor. В случае если у Вас заблокирован rutor или вдруг Вы не можете на него зайти, то Вы без труда сможете скачать бесплатно и без рекламы последние новинки кино, игр, сериалов и прочего у нас, на Rutor.in. Не нужно использовать прокси, чтобы зайти на рутор, достаточно воспользоваться нашим ресурсом. Все новые фильмы, игры, сериалы, книги и музыка за 2013 и 2014 годы через торрент бесплатно. Скачивайте фильмы в хорошем качестве, игры для пк, xbox, playstation без регистрации. У нас вы найдете новые Зарубежные сериалы и Русские сериалы 2013, 2014, 2015 годов. Оставайтесь с нами, качайте любимые фильмы, игры, сериалы, книги и музыку.
cron