img image001 image001 image001 image001 image001 image001 image001 image001 image001 image001 image001 image001 image001 image001 image001

Planets Sun Sun Sun
Статистика раздачи
Автор: Nickolas3434 | Размер: 1.64 ГБ | Добавлен: 17 авг 2015, 20:42
Раздают: 413    Качают: 48
Скачать торрент
Скачать торрент
Описание торрента

СообщениеДобавлено: 17 авг 2015, 20:42 


Информация о фильме
Название: Начальник Чукотки
Год выхода: 1966
Жанр: Комедия, драма, приключения
Режиссер: Виталий Мельников
В ролях: Михаил Кононов, Алексей Грибов, Геннадий Данзанов, Николай Волков, Павел Винник, Степан Крылов, Тито Ромалио ст., Иосиф Конопацкий, Алексей Кожевников, Константин Адашевский
О фильме: Чем заняться молодому ревкомовскому писарю на самом краю земли, где и власти-то никакой нет? Конечно, стать советской властью! Сорок лет назад на экраны вышел фильм о молодом комиссаре, который заработал для страны целый миллион долларов. В основе кинокомедии - реальные факты, о которых сообщалось в прессе. Как утверждают авторы фильма, они лишь излагают "некоторые непроверенные подробности" о первых шагах советской власти на Чукотке. По их версии, юный представитель РСФСР, собравший с иностранцев миллион долларов пошлины за покупку меха, был вынужден бежать с ним в США, спасаясь от белых. Чтобы вернуть деньги Стране Советов, ему пришлось совершить целое кругосветное путешествие...
Страна: СССР
Продолжительность: 01:26:08
Перевод: не требуется
Файл
Кодек: MKV
Качество: DVDRip-AVC
Видео: MPEG-4 AVC, 2050 Кбит/с, 712x440@968x440
Звук: AC3, 6 ch, 448 Кбит/с; AC3, 1 ch, 224 Кбит/с

raw [info]: 712x440p 499:367 @ 25/1 fps (cfr)
x264 [info]: using SAR=499/367
x264 [info]: using cpu capabilities: MMX2 SSE2Fast SSSE3 SSE4.2 AVX
x264 [info]: profile High, level 4.1
x264 [info]: frame I:681 Avg QP:16.15 size: 62286
x264 [info]: frame P:31381 Avg QP:19.37 size: 22136
x264 [info]: frame B:97157 Avg QP:20.70 size: 6046
===============================================================================================================
Общее
Уникальный идентификатор : 179750971036734952857523208897782368713 (0x873AC71B9F4FF45098A197D8AE6849C9)
Полное имя : D:Начальник Чукотки_1966-DVDRip-AVC.mkv
Формат : Matroska
Версия формата : Version 2
Размер файла : 1,64 Гбайт
Продолжительность : 1 ч. 26 м.
Общий поток : 2724 Кбит/сек
Дата кодирования : UTC 2015-08-10 23:53:56
Программа кодирования : mkvmerge v5.8.0 ('No Sleep / Pillow') built on Sep 2 2012 15:37:04
Библиотека кодирования : libebml v1.2.3 + libmatroska v1.3.0
Видео
Идентификатор : 1
Формат : AVC
Формат/Информация : Advanced Video Codec
Профиль формата : High@L4.1
Параметр CABAC формата : Да
Параметр ReFrames формата : 16 кадров
Идентификатор кодека : V_MPEG4/ISO/AVC
Продолжительность : 1 ч. 26 м.
Битрейт : 2050 Кбит/сек
Ширина : 712 пикселей
Высота : 440 пикселей
Соотношение сторон : 2,2:1
Режим частоты кадров : Постоянный
Частота кадров : 25,000 кадров/сек
Цветовое пространство : YUV
Субдискретизация насыщенности : 4:2:0
Битовая глубина : 8 бит
Тип развёртки : Прогрессивная
Бит/(Пиксели*Кадры) : 0.262
Размер потока : 1,20 Гбайт (73%)
Библиотека кодирования : x264 core 146 r2538 121396c
Настройки программы : cabac=1 / ref=16 / deblock=1:-2:-2 / analyse=0x3:0x133 / me=umh / subme=10 / psy=1 / psy_rd=1.05:0.15 / mixed_ref=1 / me_range=32 / chroma_me=1 / trellis=2 / 8x8dct=1 / cqm=0 / deadzone=21,11 / fast_pskip=0 / chroma_qp_offset=-3 / threads=12 / lookahead_threads=3 / sliced_threads=0 / nr=0 / decimate=0 / interlaced=0 / bluray_compat=0 / constrained_intra=0 / bframes=10 / b_pyramid=2 / b_adapt=2 / b_bias=0 / direct=3 / weightb=1 / open_gop=0 / weightp=2 / keyint=250 / keyint_min=25 / scenecut=40 / intra_refresh=0 / rc=2pass / mbtree=0 / bitrate=2050 / ratetol=1.0 / qcomp=0.65 / qpmin=0 / qpmax=39 / qpstep=4 / cplxblur=20.0 / qblur=0.5 / ip_ratio=1.40 / pb_ratio=1.30 / aq=1:1.00
Язык : English
Default : Да
Forced : Нет
Цветовой диапазон : Limited
Основные цвета : BT.601 PAL
Характеристики трансфера : BT.470 System B, BT.470 System G
Коэффициенты матрицы : BT.601
Аудио #1
Идентификатор : 2
Формат : AC-3
Формат/Информация : Audio Coding 3
Расширение режима : CM (complete main)
Параметр Endianness формата : Big
Идентификатор кодека : A_AC3
Продолжительность : 1 ч. 26 м.
Вид битрейта : Постоянный
Битрейт : 448 Кбит/сек
Каналы : 6 каналов
Расположение каналов : Front: L C R, Side: L R, LFE
Частота : 48,0 КГц
Битовая глубина : 16 бит
Метод сжатия : С потерями
Размер потока : 276 Мбайт (16%)
Язык : Russian
Default : Да
Forced : Нет
Аудио #2
Идентификатор : 3
Формат : AC-3
Формат/Информация : Audio Coding 3
Расширение режима : CM (complete main)
Параметр Endianness формата : Big
Идентификатор кодека : A_AC3
Продолжительность : 1 ч. 26 м.
Вид битрейта : Постоянный
Битрейт : 224 Кбит/сек
Каналы : 1 канал
Расположение каналов : Front: C
Частота : 48,0 КГц
Битовая глубина : 16 бит
Метод сжатия : С потерями
Размер потока : 138 Мбайт (8%)
Язык : Russian
Default : Нет
Forced : Нет

Релиз от:
Автор релиза:



   Похожие торренты   Торрент   Размер 
В этой теме нет новых непрочитанных сообщений. Начальник Чукотки (1966) DVDRip-AVC от Youtracker

7 | 8

1.46 ГБ

В этой теме нет новых непрочитанных сообщений. Начальник Чукотки (1966) DVDRip от Youtracker

250 | 10

1.46 ГБ

В этой теме нет новых непрочитанных сообщений. Начальник Чукотки (1966) DVDRip от Youtracker

35 | 9

744.78 МБ

В этой теме нет новых непрочитанных сообщений. Начальник Чукотки (1966) DVD5 | Реставрация

21 | 12

3.91 ГБ

В этой теме нет новых непрочитанных сообщений. Вася Обломов - Начальник (2011) HDTVRip-AVC от ExKinoRay

1 | 2

52.91 МБ

В этой теме нет новых непрочитанных сообщений. Вертикаль (1966) DVDRip-AVC от от ExKinoRay

113 | 4

1.22 ГБ

В этой теме нет новых непрочитанных сообщений. Начальник / The Chief (2009) DVDRip

105 | 5

124.77 МБ




Вы не можете начинать темы
Вы не можете отвечать на сообщения
Вы не можете редактировать свои сообщения
Вы не можете удалять свои сообщения
Вы не можете добавлять вложения

Перейти:  
Для Мосгорсуда, Роскомнадзора и рекламодателей: mosgorsud-torrent[собачка]yandex.ru
Настройки
ppkBB3cker v.2 © 2008-2014 @ PPK
[ Time : 0.013s | 15 Queries | GZIP : Off ]
CGP [Extreme] output time : 0.00044s | 0 Queries | GZIP : Off

Торрент трекер RUTOR.IN, Не можете зайти на rutor.org? Какой новый адрес рутор? Какое зеркало рутор? Не работает rutor.org и зеркала? Тогда наш торрент специально для вас. Rutor.in неофициальное зеркало rutor. В случае если у Вас заблокирован rutor или вдруг Вы не можете на него зайти, то Вы без труда сможете скачать бесплатно и без рекламы последние новинки кино, игр, сериалов и прочего у нас, на Rutor.in. Не нужно использовать прокси, чтобы зайти на рутор, достаточно воспользоваться нашим ресурсом. Все новые фильмы, игры, сериалы, книги и музыка за 2013 и 2014 годы через торрент бесплатно. Скачивайте фильмы в хорошем качестве, игры для пк, xbox, playstation без регистрации. У нас вы найдете новые Зарубежные сериалы и Русские сериалы 2013, 2014, 2015 годов. Оставайтесь с нами, качайте любимые фильмы, игры, сериалы, книги и музыку.