img image001 image001 image001 image001 image001 image001 image001 image001 image001 image001 image001 image001 image001 image001 image001

Planets Sun Sun Sun
Статистика раздачи
Автор: Nickolas3434 | Размер: 3.78 ГБ | Добавлен: 17 авг 2015, 20:42
Раздают: 423    Качают: 29
Скачать торрент
Скачать торрент
Описание торрента

СообщениеДобавлено: 17 авг 2015, 20:42 


Информация о фильме
Название: Дни Турбиных
Год выхода: 1976
Жанр: драма
Режиссер: Владимир Басов
В ролях: Андрей Мягков, Андрей Ростоцкий, Валентина Титова, Олег Басилашвили, Владимир Басов, Василий Лановой, Пётр Щербаков, Сергей Иванов, Владимир Самойлов, Виктор Чекмарёв, Маргарита Криницына, Глеб Стриженов, Вадим Грачёв, Иван Рыжов, Федор Никитин, Игорь Безяев, Алексей Коняшин, Николай Сморчков, Михаил Селютин, Владимир Соколов, Дмитрий Орловский, Борислав Брондуков, Алексей Горячев, Виталий Максимов, Елена Судакова, Владимир Протасенко, Андрей Рабинович, Александр Савченко, Сергей Бачурский, Лев Перфилов, Василий Фущич, Александр Белина, Людмила Лобза, Юрий Мысенков, Агафья Болотова, Ада Волошина, Борис Минаев...
О фильме: Фильм повествует об интеллигенции и революции в России, о жизни семьи офицеров Турбиных. Киев, зима 1918-1919 годов. Гражданская война. Власть в городе переходит от гетмана к Директории, от Петлюры - к большевикам. Турбиным и их знакомым приходится делать свой выбор. Полковник Алексей Турбин и его брат Николай остаются верными белому движению и мужественно отстаивают его, не щадя жизни. Муж Елены, урождённой Турбиной, Владимир Тальберг позорно бежит из города с отступающими германскими войсками. В это смутное время семья и близкие друзья собираются и отмечают Новый Год. В гости к ним приезжает странный и немного нелепый человек, дальний родственник Турбиных - Ларион Суржанский, Лариосик...
Страна: СССР
Продолжительность: 01:15:27 + 01:13:30 + 01:03:09
Перевод: не требуется
Файл
Кодек: MKV
Качество: DVDRip-AVC
Видео: MPEG-4 AVC, 2100 Кбит/с, 718x576@766x576,716x576@764x576
Звук: AC3, 6 ch, 448 Кбит/с
Субтитры: Русские

Общее
Уникальный идентификатор : 239442976270927240237023228937264551557 (0xB4230A302889AA318569A169C6BDD685)
Полное имя : R:МОИ РИПЫДни Турбиных_1976-DVDRip-AVCТурбины-1.mkv
Формат : Matroska
Версия формата : Version 2
Размер файла : 1,34 Гбайт
Продолжительность : 1 ч. 15 м.
Общий поток : 2550 Кбит/сек
Дата кодирования : UTC 2015-08-16 04:23:09
Программа кодирования : mkvmerge v5.8.0 ('No Sleep / Pillow') built on Sep 2 2012 15:37:04
Библиотека кодирования : libebml v1.2.3 + libmatroska v1.3.0
Видео
Идентификатор : 1
Формат : AVC
Формат/Информация : Advanced Video Codec
Профиль формата : High@L4.1
Параметр CABAC формата : Да
Параметр ReFrames формата : 15 кадров
Идентификатор кодека : V_MPEG4/ISO/AVC
Продолжительность : 1 ч. 15 м.
Битрейт : 2100 Кбит/сек
Ширина : 718 пикселей
Высота : 576 пикселей
Соотношение сторон : 4:3
Режим частоты кадров : Постоянный
Частота кадров : 25,000 кадров/сек
Цветовое пространство : YUV
Субдискретизация насыщенности : 4:2:0
Битовая глубина : 8 бит
Тип развёртки : Прогрессивная
Бит/(Пиксели*Кадры) : 0.203
Размер потока : 1,08 Гбайт (80%)
Библиотека кодирования : x264 core 146 r2538 121396c
Настройки программы : cabac=1 / ref=15 / deblock=1:-2:-2 / analyse=0x3:0x133 / me=umh / subme=10 / psy=1 / psy_rd=1.05:0.15 / mixed_ref=1 / me_range=32 / chroma_me=1 / trellis=2 / 8x8dct=1 / cqm=0 / deadzone=21,11 / fast_pskip=0 / chroma_qp_offset=-3 / threads=12 / lookahead_threads=2 / sliced_threads=0 / nr=0 / decimate=0 / interlaced=0 / bluray_compat=0 / constrained_intra=0 / bframes=8 / b_pyramid=2 / b_adapt=2 / b_bias=0 / direct=3 / weightb=1 / open_gop=0 / weightp=2 / keyint=250 / keyint_min=25 / scenecut=40 / intra_refresh=0 / rc=2pass / mbtree=0 / bitrate=2100 / ratetol=1.0 / qcomp=0.65 / qpmin=0 / qpmax=39 / qpstep=4 / cplxblur=20.0 / qblur=0.5 / ip_ratio=1.40 / pb_ratio=1.30 / aq=1:1.00
Язык : English
Default : Да
Forced : Нет
Цветовой диапазон : Limited
Основные цвета : BT.601 PAL
Характеристики трансфера : BT.470 System B, BT.470 System G
Коэффициенты матрицы : BT.601
Аудио
Идентификатор : 2
Формат : AC-3
Формат/Информация : Audio Coding 3
Расширение режима : CM (complete main)
Параметр Endianness формата : Big
Идентификатор кодека : A_AC3
Продолжительность : 1 ч. 15 м.
Вид битрейта : Постоянный
Битрейт : 448 Кбит/сек
Каналы : 6 каналов
Расположение каналов : Front: L C R, Side: L R, LFE
Частота : 48,0 КГц
Битовая глубина : 16 бит
Метод сжатия : С потерями
Задержка видео : 410 мс.
Размер потока : 242 Мбайт (18%)
Язык : Russian
Default : Да
Forced : Нет
Текст
Идентификатор : 3
Формат : UTF-8
Идентификатор кодека : S_TEXT/UTF8
Идентификатор кодека/Информация : UTF-8 Plain Text
Язык : Russian
Default : Нет
Forced : Нет
Меню
00:00:00.000 : :00:00:00.000
00:11:06.080 : :00:11:06.080
00:16:21.680 : :00:16:21.680
00:21:09.160 : :00:21:09.160
00:27:25.480 : :00:27:25.480
00:37:25.160 : :00:37:25.160
00:44:01.640 : :00:44:01.640
00:50:34.600 : :00:50:34.600
00:52:25.000 : :00:52:25.000
01:01:50.680 : :01:01:50.680

Релиз от:
Автор релиза:



   Похожие торренты   Торрент   Размер 
В этой теме нет новых непрочитанных сообщений. Дни Турбиных [01-03 из 03] (1976) DVDRip от New-Team

38 | 17

2.91 ГБ

В этой теме нет новых непрочитанных сообщений. Дни Турбиных [01-03 из 03] (1976) DVDRip-AVC от New-Team

94 | 9

2.91 ГБ

В этой теме нет новых непрочитанных сообщений. Дни Турбиных [01-03 из 03] (1976) DVDRip от New-Team

42 | 16

2.19 ГБ

В этой теме нет новых непрочитанных сообщений. Дни Турбиных (1976) DVDRip | Реставрация

31 | 10

3.86 ГБ

В этой теме нет новых непрочитанных сообщений. Дни Турбиных (1976) DVD9 | Реставрация

1 | 5

12.59 ГБ

В этой теме нет новых непрочитанных сообщений. Трын-трава (1976) DVDRip-AVC от ExKinoRay

199 | 38

1.24 ГБ

В этой теме нет новых непрочитанных сообщений. Игрушка / Le jouet (1976) DVDRip от ExKinoRay

158 | 9

1.46 ГБ




Вы не можете начинать темы
Вы не можете отвечать на сообщения
Вы не можете редактировать свои сообщения
Вы не можете удалять свои сообщения
Вы не можете добавлять вложения

Перейти:  
Для Мосгорсуда, Роскомнадзора и рекламодателей: mosgorsud-torrent[собачка]yandex.ru
Настройки
ppkBB3cker v.2 © 2008-2014 @ PPK
[ Time : 0.017s | 15 Queries | GZIP : On ]
CGP [Extreme] output time : 0.00015s | 0 Queries | GZIP : On

Торрент трекер RUTOR.IN, Не можете зайти на rutor.org? Какой новый адрес рутор? Какое зеркало рутор? Не работает rutor.org и зеркала? Тогда наш торрент специально для вас. Rutor.in неофициальное зеркало rutor. В случае если у Вас заблокирован rutor или вдруг Вы не можете на него зайти, то Вы без труда сможете скачать бесплатно и без рекламы последние новинки кино, игр, сериалов и прочего у нас, на Rutor.in. Не нужно использовать прокси, чтобы зайти на рутор, достаточно воспользоваться нашим ресурсом. Все новые фильмы, игры, сериалы, книги и музыка за 2013 и 2014 годы через торрент бесплатно. Скачивайте фильмы в хорошем качестве, игры для пк, xbox, playstation без регистрации. У нас вы найдете новые Зарубежные сериалы и Русские сериалы 2013, 2014, 2015 годов. Оставайтесь с нами, качайте любимые фильмы, игры, сериалы, книги и музыку.