img image001 image001 image001 image001 image001 image001 image001 image001 image001 image001 image001 image001 image001 image001 image001

Planets Sun Sun Sun
Статистика раздачи
Автор: Nickolas3434 | Размер: 1.46 ГБ | Добавлен: 18 авг 2015
Раздают: 19    Качают: 11
Скачать торрент
Скачать торрент
Описание торрента

СообщениеДобавлено: 18 авг 2015 

Страна: СССР
Производство: Киностудия им. Горького
Жанр: военный, драма, исторический, приключения
Год выпуска: 1949
Продолжительность: 01:35:00
Перевод: Не требуется
Cубтитры: нет
Оригинальная аудиодорожка: русский
Режиссер: Марк Донской
В ролях:
Андрей Абрикосов, Лев Свердлин, Борис Тенин, Юрий Леонидов, Ленвлад Туркин, Муратбек Рыскулов, Кененбай Кожабеков, Нурмухан Жантурин, Зана Занони, Гульфайрус Исмаилова, Б. Саралиев, Иоаким Максимов-Кошкинский...
Полный список актёров
Описание:
Жестокой эксплуатации подвергались до революции жители далекой Чукотки. С первым советским кораблем прибыл сюда уполномоченный Камчатского ревкома Лось и этнограф Жуков. Они направлялись в стойбище Лорен. Весть о появлении русских людей быстро облетела побережье. Преодолевая сопротивление американца-скупщика Томсона и местного богача Алитета, Лось и Жуков установили справедливые законы торговли, сплотили вокруг себя охотников-бедняков. Американские колонизаторы Томсон и его сын Фрэнк бежали с Чукотки. Ушел из стойбища и брошенный ими богатей Алитет. Весной на чукотский берег прибыл отряд советских людей, чтобы помочь чукчам построить новую жизнь на свободной земле.





Источник: DVD5 R5
Качество видео: DVDRip
Формат видео: AVI
Видео: 688x512 (4:3), 25 fps, XviD ~ 1999 kbps avg, 0.227 bit/pixel
Аудио: 48 kHz, Dolby Digital AC3 2.0, 192 kbps
Раздача от:
Общее
Полное имя : Alitet.uhodit.v.gory.1949.DVDRip_[New-team]_by_AVP_Studio.avi
Формат : AVI
Формат/Информация : Audio Video Interleave
Размер файла : 1,46 Гбайт
Продолжительность : 1 ч. 34 м.
Общий поток : 2200 Кбит/сек
Программа кодирования : VirtualDubMod 1.5.10.3 | www.virtualdub-fr.org || (build 2550/release)
Библиотека кодирования : VirtualDubMod build 2550/release
Видео
Идентификатор : 0
Формат : MPEG-4 Visual
Профиль формата : Advanced Simple@L5
Параметр BVOP формата : 1
Параметр QPel формата : Нет
Параметр GMC формата : Без точки перехода
Параметр матрицы формата : Выборочная
Идентификатор кодека : XVID
Идентификатор кодека/Подсказка : XviD
Продолжительность : 1 ч. 34 м.
Битрейт : 1999 Кбит/сек
Ширина : 688 пикселей
Высота : 512 пикселей
Соотношение сторон : 4:3
Частота кадров : 25,000 кадров/сек
Цветовое пространство : YUV
Субдискретизация насыщенности : 4:2:0
Битовая глубина : 8 бит
Тип развёртки : Прогрессивная
Метод сжатия : С потерями
Бит/(Пиксели*Кадры) : 0.227
Размер потока : 1,33 Гбайт (91%)
Библиотека кодирования : XviD 73
Аудио
Идентификатор : 1
Формат : AC-3
Формат/Информация : Audio Coding 3
Расширение режима : CM (complete main)
Параметр Endianness формата : Big
Идентификатор кодека : 2000
Продолжительность : 1 ч. 34 м.
Вид битрейта : Постоянный
Битрейт : 192 Кбит/сек
Каналы : 2 канала
Расположение каналов : Front: L R
Частота : 48,0 КГц
Метод сжатия : С потерями
Размер потока : 130 Мбайт (9%)
Выравнивание : Разделение по промежуткам
Продолжительность промежутка : 40 мс. (1,00 видеокадр)
Время предзагрузки промежутка : 500 мс





   Похожие торренты   Торрент   Размер 
В этой теме нет новых непрочитанных сообщений. Алитет уходит в горы (1949) DVDRip от New-Team

11 | 3

745.74 МБ

В этой теме нет новых непрочитанных сообщений. Алитет уходит в горы (1949) DVDRip-AVC от New-Team

17 | 6

1.32 ГБ

В этой теме нет новых непрочитанных сообщений. Алитет уходит в горы (1949) DVDRip от Киномагия

5 | 3

1.37 ГБ

В этой теме нет новых непрочитанных сообщений. «Мерседес» уходит от погони (1980) DVDRip-AVC от New-Team

1 | 3

745.11 МБ

В этой теме нет новых непрочитанных сообщений. «Мерседес» уходит от погони (1980) DVDRip от New-Team

2 | 4

745.02 МБ

В этой теме нет новых непрочитанных сообщений. «Мерседес» уходит от погони (1980) DVDRip от New-Team

309 | 14

1.46 ГБ

В этой теме нет новых непрочитанных сообщений. Падение Берлина (1949) DVDRip от New-Team

189 | 16

1.46 ГБ




Вы не можете начинать темы
Вы не можете отвечать на сообщения
Вы не можете редактировать свои сообщения
Вы не можете удалять свои сообщения
Вы не можете добавлять вложения

Перейти:  
Для Мосгорсуда, Роскомнадзора и рекламодателей: mosgorsud-torrent[собачка]yandex.ru
 Вход
ppkBB3cker v.2 © 2008-2014 @ PPK
[ Time : 0.034s | 15 Queries | GZIP : Off ]

Торрент трекер RUTOR.IN, Не можете зайти на rutor.org? Какой новый адрес рутор? Какое зеркало рутор? Не работает rutor.org и зеркала? Тогда наш торрент специально для вас. Rutor.in неофициальное зеркало rutor. В случае если у Вас заблокирован rutor или вдруг Вы не можете на него зайти, то Вы без труда сможете скачать бесплатно и без рекламы последние новинки кино, игр, сериалов и прочего у нас, на Rutor.in. Не нужно использовать прокси, чтобы зайти на рутор, достаточно воспользоваться нашим ресурсом. Все новые фильмы, игры, сериалы, книги и музыка за 2013 и 2014 годы через торрент бесплатно. Скачивайте фильмы в хорошем качестве, игры для пк, xbox, playstation без регистрации. У нас вы найдете новые Зарубежные сериалы и Русские сериалы 2013, 2014, 2015 годов. Оставайтесь с нами, качайте любимые фильмы, игры, сериалы, книги и музыку.