img image001 image001 image001 image001 image001 image001 image001 image001 image001 image001 image001 image001 image001 image001 image001

Planets Sun Sun Sun
Статистика раздачи
Автор: Nickolas3434 | Размер: 745.74 МБ | Добавлен: 18 авг 2015
Раздают: 11    Качают: 3
Скачать торрент
Скачать торрент
Описание торрента

СообщениеДобавлено: 18 авг 2015 

Страна: СССР
Производство: Киностудия им. Горького
Жанр: военный, драма, исторический, приключения
Год выпуска: 1949
Продолжительность: 01:35:00
Перевод: Не требуется
Cубтитры: нет
Оригинальная аудиодорожка: русский
Режиссер: Марк Донской
В ролях:
Андрей Абрикосов, Лев Свердлин, Борис Тенин, Юрий Леонидов, Ленвлад Туркин, Муратбек Рыскулов, Кененбай Кожабеков, Нурмухан Жантурин, Зана Занони, Гульфайрус Исмаилова, Б. Саралиев, Иоаким Максимов-Кошкинский...
Полный список актёров
Описание:
Жестокой эксплуатации подвергались до революции жители далекой Чукотки. С первым советским кораблем прибыл сюда уполномоченный Камчатского ревкома Лось и этнограф Жуков. Они направлялись в стойбище Лорен. Весть о появлении русских людей быстро облетела побережье. Преодолевая сопротивление американца-скупщика Томсона и местного богача Алитета, Лось и Жуков установили справедливые законы торговли, сплотили вокруг себя охотников-бедняков. Американские колонизаторы Томсон и его сын Фрэнк бежали с Чукотки. Ушел из стойбища и брошенный ими богатей Алитет. Весной на чукотский берег прибыл отряд советских людей, чтобы помочь чукчам построить новую жизнь на свободной земле.





Источник: DVD5 R5
Качество видео: DVDRip
Формат видео: AVI
Видео: 576x432 (4:3), 25 fps, XviD ~ 960 kbps avg, 0.154 bit/pixel
Аудио: 48 kHz, MP3 2.0, 128 kbps
Раздача от:
Общее
Полное имя : Alitet.uhodit.v.gory.1949.DVDRip-745_[New-team]_by_AVP_Studio.avi
Формат : AVI
Формат/Информация : Audio Video Interleave
Размер файла : 746 Мбайт
Продолжительность : 1 ч. 34 м.
Общий поток : 1098 Кбит/сек
Программа кодирования : VirtualDubMod 1.5.10.3 | www.virtualdub-fr.org || (build 2550/release)
Библиотека кодирования : VirtualDubMod build 2550/release
Видео
Идентификатор : 0
Формат : MPEG-4 Visual
Профиль формата : Advanced Simple@L5
Параметр BVOP формата : 1
Параметр QPel формата : Нет
Параметр GMC формата : Без точки перехода
Параметр матрицы формата : Выборочная
Идентификатор кодека : XVID
Идентификатор кодека/Подсказка : XviD
Продолжительность : 1 ч. 34 м.
Битрейт : 960 Кбит/сек
Ширина : 576 пикселей
Высота : 432 пикселя
Соотношение сторон : 4:3
Частота кадров : 25,000 кадров/сек
Цветовое пространство : YUV
Субдискретизация насыщенности : 4:2:0
Битовая глубина : 8 бит
Тип развёртки : Прогрессивная
Метод сжатия : С потерями
Бит/(Пиксели*Кадры) : 0.154
Размер потока : 652 Мбайт (87%)
Библиотека кодирования : XviD 73
Аудио
Идентификатор : 1
Формат : MPEG Audio
Версия формата : Version 1
Профиль формата : Layer 3
Идентификатор кодека : 55
Идентификатор кодека/Подсказка : MP3
Продолжительность : 1 ч. 34 м.
Вид битрейта : Постоянный
Битрейт : 128 Кбит/сек
Каналы : 2 канала
Частота : 48,0 КГц
Метод сжатия : С потерями
Размер потока : 87,0 Мбайт (12%)
Выравнивание : Соединение по промежуткам
Продолжительность промежутка : 40 мс. (1,00 видеокадр)
Время предзагрузки промежутка : 504 мс.
Библиотека кодирования : LAME3.99r
Настройки программы : -m s -V 4 -q 2 -lowpass 17 -b 128





   Похожие торренты   Торрент   Размер 
В этой теме нет новых непрочитанных сообщений. Алитет уходит в горы (1949) DVDRip от New-Team

10 | 9

1.46 ГБ

В этой теме нет новых непрочитанных сообщений. Алитет уходит в горы (1949) DVDRip-AVC от New-Team

9 | 2

1.32 ГБ

В этой теме нет новых непрочитанных сообщений. Алитет уходит в горы (1949) DVDRip от Киномагия

5 | 3

1.37 ГБ

В этой теме нет новых непрочитанных сообщений. «Мерседес» уходит от погони (1980) DVDRip-AVC от New-Team

2 | 3

745.11 МБ

В этой теме нет новых непрочитанных сообщений. «Мерседес» уходит от погони (1980) DVDRip от New-Team

1 | 3

745.02 МБ

В этой теме нет новых непрочитанных сообщений. «Мерседес» уходит от погони (1980) DVDRip от New-Team

302 | 12

1.46 ГБ

В этой теме нет новых непрочитанных сообщений. Падение Берлина (1949) DVDRip-AVC от New-Team

21 | 7

2.18 ГБ




Вы не можете начинать темы
Вы не можете отвечать на сообщения
Вы не можете редактировать свои сообщения
Вы не можете удалять свои сообщения
Вы не можете добавлять вложения

Перейти:  
Для Мосгорсуда, Роскомнадзора и рекламодателей: mosgorsud-torrent[собачка]yandex.ru
 Вход
ppkBB3cker v.2 © 2008-2014 @ PPK
[ Time : 0.027s | 18 Queries | GZIP : Off ]

cron