img image001 image001 image001 image001 image001 image001 image001 image001 image001 image001 image001 image001 image001 image001 image001

Planets Sun Sun Sun
Статистика раздачи
Автор: Nickolas3434 | Размер: 2.59 ГБ | Добавлен: 18 авг 2015
Раздают: 152    Качают: 10
Скачать торрент
Скачать торрент
Описание торрента

СообщениеДобавлено: 18 авг 2015 


Информация о фильме
Название: Отпуск в сентябре
Год выхода: 1979
Жанр: Драма
Режиссер: Виталий Мельников
В ролях: Олег Даль, Ирина Купченко, Наталья Гундарева, Юрий Богатырёв,Евгений Леонов, Ирина Резникова, Наталья Миколышина, Геннадий Богачёв, Николай Бурляев
О фильме: Виктор Зилов на работе получает долгожданную квартиру и устраивает новоселье для друзей, с которыми дружит еще со школьных времен. Галина — жена Виктора — возлагает на квартиру большие надежды. Ей кажется, что теперь начнется счастливая жизнь. В последнее время Виктор часто не ночевал дома, весь изолгался, пил, болтался с женщинами. Галина устала от его бесконечных пустых обещаний, но она любит Виктора и ждет от него ребенка. Зилова эта новость не обрадовала. Привыкнув к бесцельной жизни, он понимает, что ребенок — это обуза. Дома отношения не складывались, да и на работе тоже. Чтобы излишне не утруждаться, Зилов — в общем-то способный человек — подсовывает своему начальнику липовый проект…
Страна: CCCH
Продолжительность: 02:16:09
Перевод: не требуется
Файл
Кодек: MKV
Качество: DVDRip-AVC
Видео: MPEG-4 AVC, 2275 Кбит/с, 714x572@762x572
Звук: AC3, 6 ch, 448 Кбит/с

raw [info]: 714x572p 16:15 @ 25/1 fps (cfr)
x264 [info]: using SAR=16/15
x264 [info]: using cpu capabilities: MMX2 SSE2Fast SSSE3 SSE4.2 AVX
x264 [info]: profile High, level 4.1
x264 [info]: frame I:925 Avg QP:17.95 size: 53375
x264 [info]: frame P:43087 Avg QP:20.98 size: 22659
x264 [info]: frame B:160209 Avg QP:22.94 size: 8096
--------------------------------------------------------------------------------------------------------------
Общее
Уникальный идентификатор : 184347388021845585355281949652812156908 (0x8AB003F63D9CE874A7C3667474B5CFEC)
Полное имя : D:Отпуск в сентябре_1079-DVDRip-AVC.mkv
Формат : Matroska
Версия формата : Version 2
Размер файла : 2,59 Гбайт
Продолжительность : 2 ч. 16 м.
Общий поток : 2729 Кбит/сек
Кодирование произвёл : Pankrat7
Дата кодирования : UTC 2015-08-16 14:35:03
Программа кодирования : mkvmerge v5.8.0 ('No Sleep / Pillow') built on Sep 2 2012 15:37:04
Библиотека кодирования : libebml v1.2.3 + libmatroska v1.3.0
Attachements : Video.final.xlog.txt / 1.jpg
TITLE : Otpusk v Sentyabre (1979) Pankrat7
DATE_RELEASED : March 7 th 2010
COMMENT : DVDRip/x264/AAC (Source: MPEG-2 Video; 720x576 (4/3); 7263 Kbps; 25 fps; 0,519 bpp)
Видео
Идентификатор : 1
Формат : AVC
Формат/Информация : Advanced Video Codec
Профиль формата : High@L4.1
Параметр CABAC формата : Да
Параметр ReFrames формата : 15 кадров
Идентификатор кодека : V_MPEG4/ISO/AVC
Продолжительность : 2 ч. 16 м.
Битрейт : 2275 Кбит/сек
Ширина : 714 пикселей
Высота : 572 пикселя
Соотношение сторон : 4:3
Соотношение сторон в оригинале : 4:3
Режим частоты кадров : Постоянный
Частота кадров : 25,000 кадров/сек
Цветовое пространство : YUV
Субдискретизация насыщенности : 4:2:0
Битовая глубина : 8 бит
Тип развёртки : Прогрессивная
Бит/(Пиксели*Кадры) : 0.223
Размер потока : 2,12 Гбайт (82%)
Библиотека кодирования : x264 core 146 r2538 121396c
Настройки программы : cabac=1 / ref=15 / deblock=1:-2:-2 / analyse=0x3:0x133 / me=umh / subme=10 / psy=1 / psy_rd=1.05:0.15 / mixed_ref=1 / me_range=32 / chroma_me=1 / trellis=2 / 8x8dct=1 / cqm=0 / deadzone=21,11 / fast_pskip=0 / chroma_qp_offset=-3 / threads=12 / lookahead_threads=2 / sliced_threads=0 / nr=0 / decimate=0 / interlaced=0 / bluray_compat=0 / constrained_intra=0 / bframes=8 / b_pyramid=2 / b_adapt=2 / b_bias=0 / direct=3 / weightb=1 / open_gop=0 / weightp=2 / keyint=250 / keyint_min=25 / scenecut=40 / intra_refresh=0 / rc=2pass / mbtree=0 / bitrate=2275 / ratetol=1.0 / qcomp=0.65 / qpmin=0 / qpmax=39 / qpstep=4 / cplxblur=20.0 / qblur=0.5 / ip_ratio=1.40 / pb_ratio=1.30 / aq=1:1.00
Язык : English
Default : Да
Forced : Нет
Цветовой диапазон : Limited
Основные цвета : BT.601 PAL
Характеристики трансфера : BT.470 System B, BT.470 System G
Коэффициенты матрицы : BT.601
Аудио
Идентификатор : 2
Формат : AC-3
Формат/Информация : Audio Coding 3
Расширение режима : CM (complete main)
Параметр Endianness формата : Big
Идентификатор кодека : A_AC3
Продолжительность : 2 ч. 16 м.
Вид битрейта : Постоянный
Битрейт : 448 Кбит/сек
Каналы : 6 каналов
Расположение каналов : Front: L C R, Side: L R, LFE
Частота : 48,0 КГц
Битовая глубина : 16 бит
Метод сжатия : С потерями
Размер потока : 436 Мбайт (16%)
Язык : Russian
Default : Да
Forced : Нет
Меню
00:00:00.000 : ru:1. Титры "Подарок"
00:11:16.680 : ru:2. Друзья и сослуживцы. Вера
00:22:40.200 : ru:3. На новой квартире. Галина
00:29:07.040 : ru:4. Гости. Новоселье
00:41:05.200 : ru:5. На работе. Жребий
00:51:24.200 : ru:6. Позднее возвращение
01:03:59.960 : ru:7. Телефонный разговор
01:06:38.600 : ru:8. Недопустимая ошибка
01:17:45.480 : ru:9. Письмо
01:25:47.640 : ru:10. "Я уезжаю насовсем..."
01:34:44.320 : ru:11. Ирина
01:40:33.000 : ru:12. В кафе
01:56:09.840 : ru:13. Приглашение на поминки
02:03:43.120 : ru:14. Ружьё
02:09:19.720

Релиз от:
Автор релиза:



   Похожие торренты   Торрент   Размер 
В этой теме нет новых непрочитанных сообщений. Отпуск в сентябре (1979) DVDRip от Киномагия

56 | 5

2.33 ГБ

В этой теме нет новых непрочитанных сообщений. Отпуск в сентябре (1979) DVDRip от New-Team

59 | 16

1.46 ГБ

В этой теме нет новых непрочитанных сообщений. Отпуск в сентябре (1979) DVDRip-AVC от New-Team

91 | 7

2.18 ГБ

В этой теме нет новых непрочитанных сообщений. Отпуск в сентябре (1979) DVDRip-AVC от Temperest

19 | 5

3.58 ГБ

В этой теме нет новых непрочитанных сообщений. Отпуск в сентябре (2000) DVDRip от New-Team

8 | 3

2.19 ГБ

В этой теме нет новых непрочитанных сообщений. Куда ты едешь в отпуск? / Dove vai in vacanza? (1979) DVDRip от SergV

12 | 7

2.17 ГБ

В этой теме нет новых непрочитанных сообщений. Неоплачиваемый отпуск [8 серии из 8] (2009) DVDRip от ExKinoRay

0 | 3

2.36 ГБ




Вы не можете начинать темы
Вы не можете отвечать на сообщения
Вы не можете редактировать свои сообщения
Вы не можете удалять свои сообщения
Вы не можете добавлять вложения

Перейти:  
Для Мосгорсуда, Роскомнадзора и рекламодателей: mosgorsud-torrent[собачка]yandex.ru
 Вход
ppkBB3cker v.2 © 2008-2014 @ PPK
[ Time : 0.025s | 15 Queries | GZIP : Off ]

Торрент трекер RUTOR.IN, Не можете зайти на rutor.org? Какой новый адрес рутор? Какое зеркало рутор? Не работает rutor.org и зеркала? Тогда наш торрент специально для вас. Rutor.in неофициальное зеркало rutor. В случае если у Вас заблокирован rutor или вдруг Вы не можете на него зайти, то Вы без труда сможете скачать бесплатно и без рекламы последние новинки кино, игр, сериалов и прочего у нас, на Rutor.in. Не нужно использовать прокси, чтобы зайти на рутор, достаточно воспользоваться нашим ресурсом. Все новые фильмы, игры, сериалы, книги и музыка за 2013 и 2014 годы через торрент бесплатно. Скачивайте фильмы в хорошем качестве, игры для пк, xbox, playstation без регистрации. У нас вы найдете новые Зарубежные сериалы и Русские сериалы 2013, 2014, 2015 годов. Оставайтесь с нами, качайте любимые фильмы, игры, сериалы, книги и музыку.