img image001 image001 image001 image001 image001 image001 image001 image001 image001 image001 image001 image001 image001 image001 image001

Planets Sun Sun Sun
Статистика раздачи
Автор: Nickolas3434 | Размер: 2.18 ГБ | Добавлен: 18 авг 2015
Раздают: 14    Качают: 2
Скачать торрент
Скачать торрент
Описание торрента

СообщениеДобавлено: 18 авг 2015 

Страна: СССР
Производство: Мосфильм
Жанр: драма, военный
Год выпуска: 1949
Продолжительность: 02:24:42 (01:10:28 + 01:14:14)
Перевод: Не требуется
Cубтитры: нет
Оригинальная аудиодорожка: русский
Режиссер: Михаил Чиаурели
В ролях:
Михаил Геловани, Максим Штраух, Алексей Грибов, Николай Рыжов, Гавриил Белов, Рубен Симонов, Г. Пасечник, Александр Ханов, Владимир Любимов, Сергей Блинников, Борис Ливанов, Федор Блажевич, Константин Барташевич, Андрей Абрикосов, Борис Тенин, Михаил Сидоркин, А. Поярков, Борис Андреев, Марина Ковалёва, Юрий Тимошенко, Верико Анджапаридзе, Николай Боголюбов, Дмитрий Павлов, А. Уразалиев, Олег (Осип) Фрелих, Виктор Станицын, Владимир Савельев (II), Мария Новакова, Ян Верих, Н. Петрункин, Владимир Кенигсон, Николай Плотников, Владимир Покровский, В. Рэнин, К. Родэн, К. Гомола, Софья Гиацинтова, Дмитрий Дубов, Георгий Татишвили...
Полный список актёров
Описание:
Легендарная киноэпопея о событиях Великой Отечественной войны, вышедшая на экраны во времена расцвета культа личности Сталина. Сценарий, состав актёров и весь ход съёмок фильма лично контролировались И. В. Сталиным.





Источник: DVD9 R5
Качество видео: DVDRip
Формат видео: AVI
Видео: 688x512 (4:3), 25 fps, XviD ~ 1952 kbps avg, 0.222 bit/pixel
Аудио: 48 kHz, Dolby Digital AC3 2.0, 192 kbps
Раздача от:
Общее
Полное имя : Padenie.Berlina.1934.DVDRip_[New-team]_by_AVP_Studio1 серия.avi
Формат : AVI
Формат/Информация : Audio Video Interleave
Размер файла : 1,06 Гбайт
Продолжительность : 1 ч. 10 м.
Общий поток : 2154 Кбит/сек
Программа кодирования : VirtualDubMod 1.5.10.3 | www.virtualdub-fr.org || (build 2550/release)
Библиотека кодирования : VirtualDubMod build 2550/release
Видео
Идентификатор : 0
Формат : MPEG-4 Visual
Профиль формата : Advanced Simple@L5
Параметр BVOP формата : 1
Параметр QPel формата : Нет
Параметр GMC формата : Без точки перехода
Параметр матрицы формата : Выборочная
Идентификатор кодека : XVID
Идентификатор кодека/Подсказка : XviD
Продолжительность : 1 ч. 10 м.
Битрейт : 1952 Кбит/сек
Ширина : 688 пикселей
Высота : 512 пикселей
Соотношение сторон : 4:3
Частота кадров : 25,000 кадров/сек
Цветовое пространство : YUV
Субдискретизация насыщенности : 4:2:0
Битовая глубина : 8 бит
Тип развёртки : Прогрессивная
Метод сжатия : С потерями
Бит/(Пиксели*Кадры) : 0.222
Размер потока : 984 Мбайт (91%)
Библиотека кодирования : XviD 73
Аудио
Идентификатор : 1
Формат : AC-3
Формат/Информация : Audio Coding 3
Расширение режима : CM (complete main)
Параметр Endianness формата : Big
Идентификатор кодека : 2000
Продолжительность : 1 ч. 10 м.
Вид битрейта : Постоянный
Битрейт : 192 Кбит/сек
Каналы : 2 канала
Расположение каналов : Front: L R
Частота : 48,0 КГц
Метод сжатия : С потерями
Размер потока : 96,8 Мбайт (9%)
Выравнивание : Разделение по промежуткам
Продолжительность промежутка : 40 мс. (1,00 видеокадр)
Время предзагрузки промежутка : 500 мс





   Похожие торренты   Торрент   Размер 
В этой теме нет новых непрочитанных сообщений. Падение Берлина (1949) DVDRip-AVC от New-Team

24 | 10

2.18 ГБ

В этой теме нет новых непрочитанных сообщений. Падение Берлина (1949) DVDRip от New-Team

189 | 16

1.46 ГБ

В этой теме нет новых непрочитанных сообщений. Падение Берлина [01-02 из 02] (1949) DVDRip

93 | 13

2.06 ГБ

В этой теме нет новых непрочитанных сообщений. Падение Берлина (1949) DVDRip от AndrewWhite

22 | 11

1.36 ГБ

В этой теме нет новых непрочитанных сообщений. Александр Попов (1949) DVDRip-AVC от New-Team

25 | 0

1.46 ГБ

В этой теме нет новых непрочитанных сообщений. Александр Попов (1949) DVDRip от New-Team

6 | 2

745.34 МБ

В этой теме нет новых непрочитанных сообщений. Александр Попов (1949) DVDRip от New-Team

14 | 1

1.46 ГБ




Вы не можете начинать темы
Вы не можете отвечать на сообщения
Вы не можете редактировать свои сообщения
Вы не можете удалять свои сообщения
Вы не можете добавлять вложения

Перейти:  
Для Мосгорсуда, Роскомнадзора и рекламодателей: mosgorsud-torrent[собачка]yandex.ru
 Вход
ppkBB3cker v.2 © 2008-2014 @ PPK
[ Time : 0.023s | 14 Queries | GZIP : Off ]
CGP output time : 0.062s | 5 Queries | GZIP : Off

Торрент трекер RUTOR.IN, Не можете зайти на rutor.org? Какой новый адрес рутор? Какое зеркало рутор? Не работает rutor.org и зеркала? Тогда наш торрент специально для вас. Rutor.in неофициальное зеркало rutor. В случае если у Вас заблокирован rutor или вдруг Вы не можете на него зайти, то Вы без труда сможете скачать бесплатно и без рекламы последние новинки кино, игр, сериалов и прочего у нас, на Rutor.in. Не нужно использовать прокси, чтобы зайти на рутор, достаточно воспользоваться нашим ресурсом. Все новые фильмы, игры, сериалы, книги и музыка за 2013 и 2014 годы через торрент бесплатно. Скачивайте фильмы в хорошем качестве, игры для пк, xbox, playstation без регистрации. У нас вы найдете новые Зарубежные сериалы и Русские сериалы 2013, 2014, 2015 годов. Оставайтесь с нами, качайте любимые фильмы, игры, сериалы, книги и музыку.