img image001 image001 image001 image001 image001 image001 image001 image001 image001 image001 image001 image001 image001 image001 image001

Planets Sun Sun Sun
Статистика раздачи
Автор: Nickolas3434 | Размер: 1.46 ГБ | Добавлен: 18 авг 2015
Раздают: 187    Качают: 16
Скачать торрент
Скачать торрент
Описание торрента

СообщениеДобавлено: 18 авг 2015 

Страна: СССР
Производство: Мосфильм
Жанр: драма, военный
Год выпуска: 1949
Продолжительность: 02:24:42 (01:10:28 + 01:14:14)
Перевод: Не требуется
Cубтитры: нет
Оригинальная аудиодорожка: русский
Режиссер: Михаил Чиаурели
В ролях:
Михаил Геловани, Максим Штраух, Алексей Грибов, Николай Рыжов, Гавриил Белов, Рубен Симонов, Г. Пасечник, Александр Ханов, Владимир Любимов, Сергей Блинников, Борис Ливанов, Федор Блажевич, Константин Барташевич, Андрей Абрикосов, Борис Тенин, Михаил Сидоркин, А. Поярков, Борис Андреев, Марина Ковалёва, Юрий Тимошенко, Верико Анджапаридзе, Николай Боголюбов, Дмитрий Павлов, А. Уразалиев, Олег (Осип) Фрелих, Виктор Станицын, Владимир Савельев (II), Мария Новакова, Ян Верих, Н. Петрункин, Владимир Кенигсон, Николай Плотников, Владимир Покровский, В. Рэнин, К. Родэн, К. Гомола, Софья Гиацинтова, Дмитрий Дубов, Георгий Татишвили...
Полный список актёров
Описание:
Легендарная киноэпопея о событиях Великой Отечественной войны, вышедшая на экраны во времена расцвета культа личности Сталина. Сценарий, состав актёров и весь ход съёмок фильма лично контролировались И. В. Сталиным.





Источник: DVD9 R5
Качество видео: DVDRip
Формат видео: AVI
Видео: 688x512 (4:3), 25 fps, XviD ~ 1363 kbps avg, 0.155 bit/pixel
Аудио: 48 kHz, MP3 2.0, 128 kbps
Раздача от:
Общее
Полное имя : Padenie.Berlina.1934.DVDRip-1,46_[New-team]_by_AVP_Studio2 серия.avi
Формат : AVI
Формат/Информация : Audio Video Interleave
Размер файла : 796 Мбайт
Продолжительность : 1 ч. 14 м.
Общий поток : 1501 Кбит/сек
Программа кодирования : VirtualDubModRus 1.5.10.2 (build 2542/release)
Библиотека кодирования : VirtualDubMod build 2542/release
Видео
Идентификатор : 0
Формат : MPEG-4 Visual
Профиль формата : Advanced Simple@L5
Параметр BVOP формата : 1
Параметр QPel формата : Нет
Параметр GMC формата : Без точки перехода
Параметр матрицы формата : Выборочная
Идентификатор кодека : XVID
Идентификатор кодека/Подсказка : XviD
Продолжительность : 1 ч. 14 м.
Битрейт : 1363 Кбит/сек
Ширина : 688 пикселей
Высота : 512 пикселей
Соотношение сторон : 4:3
Частота кадров : 25,000 кадров/сек
Цветовое пространство : YUV
Субдискретизация насыщенности : 4:2:0
Битовая глубина : 8 бит
Тип развёртки : Прогрессивная
Метод сжатия : С потерями
Бит/(Пиксели*Кадры) : 0.155
Размер потока : 723 Мбайт (91%)
Библиотека кодирования : XviD 73
Аудио
Идентификатор : 1
Формат : MPEG Audio
Версия формата : Version 1
Профиль формата : Layer 3
Идентификатор кодека : 55
Идентификатор кодека/Подсказка : MP3
Продолжительность : 1 ч. 14 м.
Вид битрейта : Постоянный
Битрейт : 128 Кбит/сек
Каналы : 2 канала
Частота : 48,0 КГц
Метод сжатия : С потерями
Размер потока : 67,9 Мбайт (9%)
Выравнивание : Соединение по промежуткам
Продолжительность промежутка : 40 мс. (1,00 видеокадр)
Время предзагрузки промежутка : 504 мс





   Похожие торренты   Торрент   Размер 
В этой теме нет новых непрочитанных сообщений. Падение Берлина (1949) DVDRip от New-Team

9 | 2

2.18 ГБ

В этой теме нет новых непрочитанных сообщений. Падение Берлина (1949) DVDRip-AVC от New-Team

21 | 7

2.18 ГБ

В этой теме нет новых непрочитанных сообщений. Падение Берлина [01-02 из 02] (1949) DVDRip

93 | 13

2.06 ГБ

В этой теме нет новых непрочитанных сообщений. Падение Берлина (1949) DVDRip от AndrewWhite

22 | 11

1.36 ГБ

В этой теме нет новых непрочитанных сообщений. Александр Попов (1949) DVDRip от New-Team

3 | 0

745.34 МБ

В этой теме нет новых непрочитанных сообщений. Александр Попов (1949) DVDRip от New-Team

11 | 1

1.46 ГБ

В этой теме нет новых непрочитанных сообщений. Встреча на Эльбе (1949) DVDRip-AVC от New-Team

22 | 5

1.46 ГБ




Вы не можете начинать темы
Вы не можете отвечать на сообщения
Вы не можете редактировать свои сообщения
Вы не можете удалять свои сообщения
Вы не можете добавлять вложения

Перейти:  
Для Мосгорсуда, Роскомнадзора и рекламодателей: mosgorsud-torrent[собачка]yandex.ru
 Вход
ppkBB3cker v.2 © 2008-2014 @ PPK
[ Time : 0.029s | 16 Queries | GZIP : Off ]

cron