img image001 image001 image001 image001 image001 image001 image001 image001 image001 image001 image001 image001 image001 image001 image001

Planets Sun Sun Sun
Статистика раздачи
Автор: Nickolas3434 | Размер: 5.29 ГБ | Добавлен: 20 авг 2015
Раздают: 165    Качают: 13
Скачать торрент
Скачать торрент
Описание торрента

СообщениеДобавлено: 20 авг 2015 


Информация о фильме
Название: Щит и меч
Год выхода: 1868
Жанр: Военная драма, экранизация, приключения
Режиссер: Владимир Басов
В ролях: Станислав Любшин, Владимир Басов, Юозас Будрайтис, Алла Демидова, Олег Янковский, Наталья Величко, Валентина Титова, Алексей Глазырин, Альгимантас Масюлис, Вацлав Дворжецкий, Николай Засухин, Людмила Чурсина, Николай Прокопович, Юрий Медведев, Михаил Погоржельский, Николай Граббе, Георгий Мартынюк, Валентин Смирнитский, Всеволод Сафонов, Игорь Ясулович, Лев Поляков, Ольга Жизнева, Валентина Ананьина, Инга Будкевич, Раднэр Муратов, Эдгар Ходжикян
О фильме: Экранизация одноименного романа Вадима Кожевникова. Великая Отечественная война. Советский разведчик Александр Белов (Станислав Любшин), выехавший в 1940 году в Германию под именем немца-репатрианта Иоганна Вайса, к 1944 году достиг прочного положения в абвере, дослужился до чина обер-лейтенанта и был переведён в Берлин, в службу СС. По роду службы офицер для особых поручений Вайс имеет доступ к ценнейшим сведениям…
Страна: СССР, Польша, Германия (ГДР)
Продолжительность: 4 x ~ 01:23:18
Перевод: не требуется
Файл
Кодек: MKV
Качество: DVDRip-AVC
Видео: MPEG-4 AVC, ~ 1750 Кбит/с, 1022x432
Звук: АС3, 6 ch, 448 Кбит/с, AC3, 1 ch, 128 Kbps
Субтитры: Русские
Навигация по главам: присутствует

raw [info]: 718x432p 64:45 @ 25/1 fps (cfr)
x264 [info]: using SAR=64/45
x264 [info]: using cpu capabilities: MMX2 SSE2Fast SSSE3 SSE4.2 AVX
x264 [info]: profile High, level 4.1
x264 [info]: frame I:591 Avg QP:16.77 size: 53417
x264 [info]: frame P:29988 Avg QP:20.15 size: 18760
x264 [info]: frame B:87795 Avg QP:21.65 size: 5037
==============================================================================================================
Общее
Уникальный идентификатор : 175870037713913952419729903489828362040 (0x844F56526F9F6C0FAFDBEB1ECC359738)
Полное имя : R:МОИ РИПЫЩит и меч_1968-DVDRip-AVCЩит-1.mkv
Формат : Matroska
Версия формата : Version 2
Размер файла : 1,28 Гбайт
Продолжительность : 1 ч. 18 м.
Общий поток : 2329 Кбит/сек
Дата кодирования : UTC 2015-08-17 21:33:19
Программа кодирования : mkvmerge v5.8.0 ('No Sleep / Pillow') built on Sep 2 2012 15:37:04
Библиотека кодирования : libebml v1.2.3 + libmatroska v1.3.0
Attachements : cover.jpg
Видео
Идентификатор : 1
Формат : AVC
Формат/Информация : Advanced Video Codec
Профиль формата : High@L4.1
Параметр CABAC формата : Да
Параметр ReFrames формата : 15 кадров
Идентификатор кодека : V_MPEG4/ISO/AVC
Продолжительность : 1 ч. 18 м.
Битрейт : 1750 Кбит/сек
Ширина : 718 пикселей
Высота : 432 пикселя
Соотношение сторон : 2,35:1
Соотношение сторон в оригинале : 2,35:1
Режим частоты кадров : Постоянный
Частота кадров : 25,000 кадров/сек
Цветовое пространство : YUV
Субдискретизация насыщенности : 4:2:0
Битовая глубина : 8 бит
Тип развёртки : Прогрессивная
Бит/(Пиксели*Кадры) : 0.226
Размер потока : 963 Мбайт (73%)
Библиотека кодирования : x264 core 146 r2538 121396c
Настройки программы : cabac=1 / ref=15 / deblock=1:-2:-2 / analyse=0x3:0x133 / me=umh / subme=10 / psy=1 / psy_rd=1.05:0.16 / mixed_ref=1 / me_range=32 / chroma_me=1 / trellis=2 / 8x8dct=1 / cqm=0 / deadzone=21,11 / fast_pskip=0 / chroma_qp_offset=-3 / threads=12 / lookahead_threads=3 / sliced_threads=0 / nr=0 / decimate=0 / interlaced=0 / bluray_compat=0 / constrained_intra=0 / bframes=10 / b_pyramid=2 / b_adapt=2 / b_bias=0 / direct=3 / weightb=1 / open_gop=0 / weightp=2 / keyint=250 / keyint_min=25 / scenecut=40 / intra_refresh=0 / rc=2pass / mbtree=0 / bitrate=1750 / ratetol=1.0 / qcomp=0.65 / qpmin=0 / qpmax=39 / qpstep=4 / cplxblur=20.0 / qblur=0.5 / ip_ratio=1.40 / pb_ratio=1.30 / aq=1:1.00
Язык : English
Default : Да
Forced : Нет
Цветовой диапазон : Limited
Основные цвета : BT.601 PAL
Характеристики трансфера : BT.470 System B, BT.470 System G
Коэффициенты матрицы : BT.601
Аудио #1
Идентификатор : 2
Формат : AC-3
Формат/Информация : Audio Coding 3
Расширение режима : CM (complete main)
Параметр Endianness формата : Big
Идентификатор кодека : A_AC3
Продолжительность : 1 ч. 18 м.
Вид битрейта : Постоянный
Битрейт : 448 Кбит/сек
Каналы : 6 каналов
Расположение каналов : Front: L C R, Side: L R, LFE
Частота : 48,0 КГц
Битовая глубина : 16 бит
Метод сжатия : С потерями
Задержка видео : 525 мс.
Размер потока : 253 Мбайт (19%)
Язык : Russian
Default : Да
Forced : Нет
Аудио #2
Идентификатор : 3
Формат : AC-3
Формат/Информация : Audio Coding 3
Расширение режима : CM (complete main)
Параметр Endianness формата : Big
Идентификатор кодека : A_AC3
Продолжительность : 1 ч. 18 м.
Вид битрейта : Постоянный
Битрейт : 128 Кбит/сек
Каналы : 1 канал
Расположение каналов : Front: C
Частота : 48,0 КГц
Битовая глубина : 16 бит
Метод сжатия : С потерями
Задержка видео : 527 мс.
Размер потока : 72,2 Мбайт (5%)
Язык : Russian
Default : Нет
Forced : Нет
Текст
Идентификатор : 4
Формат : UTF-8
Идентификатор кодека : S_TEXT/UTF8
Идентификатор кодека/Информация : UTF-8 Plain Text
Язык : Russian
Default : Нет
Forced : Нет
Меню
00:00:00.000 : :1. Без права быть собой
00:02:27.000 : :2. Иоганн Вайс
00:10:19.200 : :3. Александр Белов
00:17:08.400 : :4. На новом месте
00:22:50.400 : :5. Работа в гараже
00:30:25.200 : :6. Ангелика
00:39:52.200 : :7. Оскар Папке
00:45:00.000 : :8. Подполковник Фон Зальц
00:52:03.000 : :9. Общежитие
00:57:18.000 : :10. Фройляйн ефрейтор
01:04:18.000 : :11. Щенок
01:11:02.400 : :12. За неделю до войны

Релиз от:
Автор релиза:



   Похожие торренты   Торрент   Размер 
В этой теме нет новых непрочитанных сообщений. Интервенция (1968) DVDRip-AVC от ExKinoRay

120 | 6

2.05 ГБ

В этой теме нет новых непрочитанных сообщений. Не горюй! (1968) DVDRip-AVC от ExKinoRay

111 | 4

2.1 ГБ

В этой теме нет новых непрочитанных сообщений. Журавушка (1968) DVDRip - ExKinoRay

62 | 6

1.37 ГБ

В этой теме нет новых непрочитанных сообщений. Хозяин тайги (1968) DVDRip-AVC от ExKinoRay

122 | 8

1.2 ГБ

В этой теме нет новых непрочитанных сообщений. Освобождение [01-05 из 05] (1968-1971) DVDRip-AVC от ExKinoRay

212 | 35

7.92 ГБ

В этой теме нет новых непрочитанных сообщений. Освобождение [01-05 из 05] (1968-1971) DVDRip-AVC от ExKinoRay

230 | 51

7.92 ГБ

В этой теме нет новых непрочитанных сообщений. Деревенский детектив (1968) DVDRip-AVC от ExKinoRay

42 | 7

1.57 ГБ




Вы не можете начинать темы
Вы не можете отвечать на сообщения
Вы не можете редактировать свои сообщения
Вы не можете удалять свои сообщения
Вы не можете добавлять вложения

Перейти:  
Для Мосгорсуда, Роскомнадзора и рекламодателей: mosgorsud-torrent[собачка]yandex.ru
 Вход
ppkBB3cker v.2 © 2008-2014 @ PPK
[ Time : 0.042s | 14 Queries | GZIP : Off ]

Торрент трекер RUTOR.IN, Не можете зайти на rutor.org? Какой новый адрес рутор? Какое зеркало рутор? Не работает rutor.org и зеркала? Тогда наш торрент специально для вас. Rutor.in неофициальное зеркало rutor. В случае если у Вас заблокирован rutor или вдруг Вы не можете на него зайти, то Вы без труда сможете скачать бесплатно и без рекламы последние новинки кино, игр, сериалов и прочего у нас, на Rutor.in. Не нужно использовать прокси, чтобы зайти на рутор, достаточно воспользоваться нашим ресурсом. Все новые фильмы, игры, сериалы, книги и музыка за 2013 и 2014 годы через торрент бесплатно. Скачивайте фильмы в хорошем качестве, игры для пк, xbox, playstation без регистрации. У нас вы найдете новые Зарубежные сериалы и Русские сериалы 2013, 2014, 2015 годов. Оставайтесь с нами, качайте любимые фильмы, игры, сериалы, книги и музыку.