img image001 image001 image001 image001 image001 image001 image001 image001 image001 image001 image001 image001 image001 image001 image001

Planets Sun Sun Sun
Статистика раздачи
Автор: Nickolas3434 | Размер: 2.95 ГБ | Добавлен: 20 авг 2015
Раздают: 218    Качают: 17
Скачать торрент
Скачать торрент
Описание торрента

СообщениеДобавлено: 20 авг 2015 


Информация о фильме
Название: Андрей Рублёв
Оригинальное название: Страсти по Андрею
Год выхода: 1966
Жанр: драма, исторический
Режиссер: Андрей Тарковский
В ролях: Анатолий Солоницын, Иван Лапиков, Николай Гринько, Николай Сергеев, Ирина Тарковская, Николай Бурляев, Юрий Назаров, Юрий Никулин, Ролан Быков, Николай Граббе, Михаил Кононов, Ирина Мирошниченко, Болот Бейшеналиев, Игорь Донской, Николай Глазков, Николай Кутузов, Анатолий Обухов, Дмитрий Орловский, Александр Титов, Владимир Титов, Асанбек Умуралиев, Владимир Васильев (II), Зинаида Воркуль, Степан Крылов, Вячеслав Царев, Виктор Волков, Владимир Гуськов, Искен Рыскуловв, Тамара Огородникова, Николай Сибейкин, Андрей Петров
О фильме: «Фильм описывает жизнь Андрея Рублёва — известного русского иконописца, протекающую в конце XIV — начале XV веков. Времени, когда становилась новая русская государственность под рукой Москвы и завершался переход Руси языческой к христианской». (Нашёл, кажется, самое краткое описание. Потому что описывать этот фильм бесмысленно.)
После показа первого варианта картины на «ограниченной» премьере неё создателей фильма обвинили… в пропаганде насилия и жестокости; были сделаны многочисленные замечания и пожелания по переделке фильма. Тарковский перемонтировал и несколько сократил его. Какие-то из замечаний он учёл, какие-то проигнорировал. Он, по словам исследователя, «не просто тупо вырезал, но ещё менял планы местами, что-то вставлял из имеющегося отснятого, но ранее не использованного и т. д. Второй вариант фильма на четверть переозвучен с добавлением музыки и новых звуков. И как раз это-то и представляет большой интерес (для узкого круга людей) и даёт представление о работе мастера». В мае 1969 года фильм, уже под названием «Андрей Рублёв», был показан на Каннском кинофестивале. На экраны СССР он вышел в очень малом числе копий лишь в 1971 году (премьера в Москве состоялась 24 декабря). Показ первоначального варианта («Страсти по Андрею») широкой публике в 1987 году сопровождался заявлениями о том, что наконец-то восстановлена справедливость и показана «подлинная режиссёрская версия». Однако сам Тарковский всегда считал окончательным именно тот вариант, который с 1971 года шёл на отечественных экранах.
Страна: СССР
Продолжительность: 03:17:11
Перевод: не требуется
Файл
Кодек: MKV
Качество: DVDRip-AVC
Видео: MPEG-4 AVC, 1950 Кбит/с, 25 fps, 720x392@832x392
Звук: AC3, 1 ch, 192 Кбит/с
Субтитры: Русские (пояснительные)

Общее
Уникальный идентификатор : 178605488021528013466930822027065067228 (0x865E2A6F5463FD369C44CD2DCA7A86DC)
Полное имя : D:Страсти по Андрею(Андрей Рублёв)_1966-DVDRip-AVC.mkv
Формат : Matroska
Версия формата : Version 2
Размер файла : 2,95 Гбайт
Продолжительность : 3 ч. 17 м.
Общий поток : 2144 Кбит/сек
Дата кодирования : UTC 2015-08-19 15:46:30
Программа кодирования : mkvmerge v5.8.0 ('No Sleep / Pillow') built on Sep 2 2012 15:37:04
Библиотека кодирования : libebml v1.2.3 + libmatroska v1.3.0
Видео
Идентификатор : 1
Формат : AVC
Формат/Информация : Advanced Video Codec
Профиль формата : High@L4.1
Параметр CABAC формата : Да
Параметр ReFrames формата : 14 кадров
Идентификатор кодека : V_MPEG4/ISO/AVC
Продолжительность : 3 ч. 17 м.
Битрейт : 1950 Кбит/сек
Ширина : 720 пикселей
Высота : 392 пикселя
Соотношение сторон : 2,122
Режим частоты кадров : Постоянный
Частота кадров : 25,000 кадров/сек
Цветовое пространство : YUV
Субдискретизация насыщенности : 4:2:0
Битовая глубина : 8 бит
Тип развёртки : Прогрессивная
Бит/(Пиксели*Кадры) : 0.276
Размер потока : 2,63 Гбайт (89%)
Библиотека кодирования : x264 core 146 r2538 121396c
Настройки программы : cabac=1 / ref=14 / deblock=1:-2:-2 / analyse=0x3:0x133 / me=umh / subme=10 / psy=1 / psy_rd=1.05:0.13 / mixed_ref=1 / me_range=32 / chroma_me=1 / trellis=2 / 8x8dct=1 / cqm=0 / deadzone=21,11 / fast_pskip=0 / chroma_qp_offset=-3 / threads=12 / lookahead_threads=2 / sliced_threads=0 / nr=0 / decimate=0 / interlaced=0 / bluray_compat=0 / constrained_intra=0 / bframes=8 / b_pyramid=2 / b_adapt=2 / b_bias=0 / direct=3 / weightb=1 / open_gop=0 / weightp=2 / keyint=250 / keyint_min=25 / scenecut=40 / intra_refresh=0 / rc=2pass / mbtree=0 / bitrate=1950 / ratetol=1.0 / qcomp=0.65 / qpmin=0 / qpmax=39 / qpstep=4 / cplxblur=20.0 / qblur=0.5 / ip_ratio=1.40 / pb_ratio=1.30 / aq=1:1.00
Язык : English
Default : Да
Forced : Нет
Цветовой диапазон : Limited
Основные цвета : BT.601 PAL
Характеристики трансфера : BT.470 System B, BT.470 System G
Коэффициенты матрицы : BT.601
Аудио
Идентификатор : 2
Формат : AC-3
Формат/Информация : Audio Coding 3
Расширение режима : CM (complete main)
Параметр Endianness формата : Big
Идентификатор кодека : A_AC3
Продолжительность : 3 ч. 17 м.
Вид битрейта : Постоянный
Битрейт : 192 Кбит/сек
Каналы : 1 канал
Расположение каналов : Front: C
Частота : 48,0 КГц
Битовая глубина : 16 бит
Метод сжатия : С потерями
Размер потока : 271 Мбайт (9%)
Язык : Russian
Default : Да
Forced : Нет
Текст
Идентификатор : 3
Формат : UTF-8
Идентификатор кодека : S_TEXT/UTF8
Идентификатор кодека/Информация : UTF-8 Plain Text
Заголовок : Пояснительные
Язык : Russian
Default : Да
Forced : Нет

Это новый трансфер, сделанный с оригинального негатива первоначальной версии фильма в 2012 году. В отличие от трансфера, изданного «Критерионом», здесь изображение, несколько светлее и чётче.
Фактически данное (академическое) издание для искусствоведов и любителей кино. Его основной целью было, проследить различия в монтаже и приёмах мэтра на основе сопоставления двух версий фильма, мысленно заглянуть в творческую лабораторию великого режиссёра, увидеть, как менялось его видение картины, происходило её переосмысление. На основе кропотливой исследовательской работы по покадровому выявлению разницы между версиями фильма, проделанной одним из участников форума forum.tarkovsky (пожелавшим остаться инкогнито), им же были сделаны субтитры, поясняющие буквально все различия: какие кадры из первоначальной версии отсутствуют в окончательной, какие кадры были заменены на другие дубли; в случае, когда одни и те же кадры в разных версиях были озвучены разным текстом, это также отмечено в субтитрах.

Спасибо за исходник AVV_UA
Релиз от:
Автор релиза:



   Похожие торренты   Торрент   Размер 
В этой теме нет новых непрочитанных сообщений. Андрей Рублев (1966) DVDRip | Режиссерская версия

103 | 5

2.04 ГБ

В этой теме нет новых непрочитанных сообщений. Андрей Рублёв (1966) DVDRip от MediaClub | КПК | Режиссёрская версия

236 | 10

932.54 МБ

В этой теме нет новых непрочитанных сообщений. Андрей Рублев (1966) DVDRip

78 | 4

1.41 ГБ

В этой теме нет новых непрочитанных сообщений. Андрей Рублев (1966) BDRip

20 | 4

2.91 ГБ

В этой теме нет новых непрочитанных сообщений. Андрей Рублев (1966) DVD5 | Реставрация

21 | 2

4.32 ГБ

В этой теме нет новых непрочитанных сообщений. Андрей Рублев (1966) BDRip 720p от HQ-ViDEO

19 | 6

8.73 ГБ

В этой теме нет новых непрочитанных сообщений. Андрей Рублев (1966) BDRip 720p от HQ-ViDEO

114 | 34

11 ГБ




Вы не можете начинать темы
Вы не можете отвечать на сообщения
Вы не можете редактировать свои сообщения
Вы не можете удалять свои сообщения
Вы не можете добавлять вложения

Перейти:  
Для Мосгорсуда, Роскомнадзора и рекламодателей: mosgorsud-torrent[собачка]yandex.ru
 Вход
ppkBB3cker v.2 © 2008-2014 @ PPK
[ Time : 37.913s | 14 Queries | GZIP : Off ]
CGP output time : 0.014s | 5 Queries | GZIP : Off

Торрент трекер RUTOR.IN, Не можете зайти на rutor.org? Какой новый адрес рутор? Какое зеркало рутор? Не работает rutor.org и зеркала? Тогда наш торрент специально для вас. Rutor.in неофициальное зеркало rutor. В случае если у Вас заблокирован rutor или вдруг Вы не можете на него зайти, то Вы без труда сможете скачать бесплатно и без рекламы последние новинки кино, игр, сериалов и прочего у нас, на Rutor.in. Не нужно использовать прокси, чтобы зайти на рутор, достаточно воспользоваться нашим ресурсом. Все новые фильмы, игры, сериалы, книги и музыка за 2013 и 2014 годы через торрент бесплатно. Скачивайте фильмы в хорошем качестве, игры для пк, xbox, playstation без регистрации. У нас вы найдете новые Зарубежные сериалы и Русские сериалы 2013, 2014, 2015 годов. Оставайтесь с нами, качайте любимые фильмы, игры, сериалы, книги и музыку.