img image001 image001 image001 image001 image001 image001 image001 image001 image001 image001 image001 image001 image001 image001 image001

Planets Sun Sun Sun
Статистика раздачи
Автор: Nickolas3434 | Размер: 2.18 ГБ | Добавлен: 20 авг 2015
Раздают: 1423    Качают: 121
Скачать торрент
Скачать торрент
Описание торрента

СообщениеДобавлено: 20 авг 2015 


Информация о фильме
Оригинальное название: Батальонъ
Год выпуска: 2015
Жанр: Драма, военный, исторический
Выпущено: Россия, Корнер Ворк, Art Pictures Studio
Режиссер: Дмитрий Месхиев
В ролях: Мария Аронова, Мария Кожевникова, Ирина Рахманова, Марат Башаров, Янина Малинчик, Евгений Дятлов, Яков Шамшин, Алёна Кучкова, Валерия Шкирандо, Николай Аузин, Владимир Зайцев, Екатерина Вилкова, Сергей Тэсслер, Юлия Яновская (II), Дмитрий Шевченко, Артур Ваха
О фильме: Весна 1917-го года. Февральская революция изменила жизнь России и ход Великой войны. Государь уже отрёкся от престола. В окопах, где противостояние с немцами длится уже не один год, вовсю ведут свою пропаганду большевики. Они призывают к миру с неприятелем. Российское офицерство фактически ничего не может решить без одобрения так называемых солдатских комитетов. Армия находится на пороге окончательного разложения. По приказу Временного правительства для поднятия боевого духа создаётся женский «Батальон смерти» под командованием георгиевского кавалера Марии Бочкарёвой. Своей службой «Батальон смерти» подаёт пример храбрости, мужества и спокойствия, поднимает дух солдат и доказывает, что каждая из этих женщин-героев достойна звания воина русской армии.
Качество: BDRip-AVC исх. /torrent/451743
Видео: MPEG-4 AVC, 1969 Кбит/с, 1024x426
Аудио: AC3, 6 ch, 448 Кбит/с
Размер: 2.18 ГБ
Продолжительность: 02:08:54
Язык: Русский [Лицензия]
x264 [info]: frame I:1638 Avg QP:16.21 size: 77253
x264 [info]: frame P:47347 Avg QP:19.43 size: 20384
x264 [info]: frame B:136641 Avg QP:20.70 size: 5935
Общее
Уникальный идентификатор : 199602778900175655503113439511969438725 (0x962A18CD90ADD8A9B6524E50464A9C05)
Полное имя : C:Batalion.2015.O.BDRip.AVC.by.bog3417.mkv
Формат : Matroska
Версия формата : Version 2
Размер файла : 2,18 Гбайт
Продолжительность : 2 ч. 8 м.
Общий поток : 2418 Кбит/сек
Название фильма : bog3417
Дата кодирования : UTC 2015-08-19 17:55:58
Программа кодирования : mkvmerge v7.9.0 ('Birds') 64bit
Библиотека кодирования : libebml v1.3.1 + libmatroska v1.4.2
Видео
Идентификатор : 1
Формат : AVC
Формат/Информация : Advanced Video Codec
Профиль формата : High@L4.1
Параметр CABAC формата : Да
Параметр ReFrames формата : 12 кадров
Идентификатор кодека : V_MPEG4/ISO/AVC
Продолжительность : 2 ч. 8 м.
Битрейт : 1969 Кбит/сек
Ширина : 1024 пикселя
Высота : 426 пикселей
Соотношение сторон : 2,40:1
Режим частоты кадров : Постоянный
Частота кадров : 24,000 кадра/сек
Цветовое пространство : YUV
Субдискретизация насыщенности : 4:2:0
Битовая глубина : 8 бит
Тип развёртки : Прогрессивная
Бит/(Пиксели*Кадры) : 0.188
Размер потока : 1,73 Гбайт (79%)
Заголовок : by_bog3417
Библиотека кодирования : x264 core 146 r2538 121396c
Настройки программы : cabac=1 / ref=12 / deblock=1:-3:-3 / analyse=0x3:0x33 / me=umh / subme=11 / psy=1 / psy_rd=1.00:0.00 / mixed_ref=1 / me_range=32 / chroma_me=1 / trellis=2 / 8x8dct=1 / cqm=0 / deadzone=21,11 / fast_pskip=0 / chroma_qp_offset=-2 / threads=12 / lookahead_threads=2 / sliced_threads=0 / nr=0 / decimate=0 / interlaced=0 / bluray_compat=0 / constrained_intra=0 / bframes=9 / b_pyramid=2 / b_adapt=2 / b_bias=0 / direct=3 / weightb=1 / open_gop=0 / weightp=2 / keyint=240 / keyint_min=24 / scenecut=40 / intra_refresh=0 / rc=2pass / mbtree=0 / bitrate=1969 / ratetol=1.0 / qcomp=0.60 / qpmin=0 / qpmax=69 / qpstep=4 / cplxblur=20.0 / qblur=0.5 / ip_ratio=1.40 / pb_ratio=1.30 / aq=3:0.90
Язык : English
Default : Да
Forced : Нет
Аудио
Идентификатор : 2
Формат : AC-3
Формат/Информация : Audio Coding 3
Расширение режима : CM (complete main)
Параметр Endianness формата : Big
Идентификатор кодека : A_AC3
Продолжительность : 2 ч. 8 м.
Вид битрейта : Постоянный
Битрейт : 448 Кбит/сек
Каналы : 6 каналов
Расположение каналов : Front: L C R, Side: L R, LFE
Частота : 48,0 КГц
Метод сжатия : С потерями
Размер потока : 413 Мбайт (19%)
Default : Да
Forced : Нет
Меню
00:00:00.000 : en:00:00:00.000
00:12:18.875 : en:00:12:18.875
00:21:40.042 : en:00:21:40.042
00:33:42.625 : en:00:33:42.625
00:41:00.250 : en:00:41:00.250
00:55:59.208 : en:00:55:59.208
01:01:24.000 : en:01:01:24.000
01:11:55.417 : en:01:11:55.417
01:23:56.292 : en:01:23:56.292
01:31:40.500 : en:01:31:40.500
01:40:55.167 : en:01:40:55.167
01:52:30.167 : en:01:52:30.167






   Похожие торренты   Торрент   Размер 
В этой теме нет новых непрочитанных сообщений. Батальонъ (2015) BDRip | Лицензия

10098 | 514

2.18 ГБ

В этой теме нет новых непрочитанных сообщений. Батальонъ (2015) BDRip от Twi7ter | Лицензия

2513 | 194

1.46 ГБ

В этой теме нет новых непрочитанных сообщений. Батальонъ (2015) BDRip 1080p | Лицензия

1129 | 89

11.84 ГБ

В этой теме нет новых непрочитанных сообщений. Батальонъ (2015) BDRip 720p | Лицензия

602 | 70

6.05 ГБ

В этой теме нет новых непрочитанных сообщений. Батальонъ (2015) BDRip от HQCLUB | Лицензия

680 | 42

2.18 ГБ

В этой теме нет новых непрочитанных сообщений. Батальонъ (2015) BDRip 1080p от ExKinoRay | Лицензия

778 | 86

9.94 ГБ

В этой теме нет новых непрочитанных сообщений. Батальонъ (2015) BDRip 720p от Scarabey | Лицензия

1397 | 116

4.08 ГБ




Вы не можете начинать темы
Вы не можете отвечать на сообщения
Вы не можете редактировать свои сообщения
Вы не можете удалять свои сообщения
Вы не можете добавлять вложения

Перейти:  
Для Мосгорсуда, Роскомнадзора и рекламодателей: mosgorsud-torrent[собачка]yandex.ru
 Вход
ppkBB3cker v.2 © 2008-2014 @ PPK
[ Time : 1.606s | 15 Queries | GZIP : Off ]

cron