img image001 image001 image001 image001 image001 image001 image001 image001 image001 image001 image001 image001 image001 image001 image001

Planets Sun Sun Sun
Статистика раздачи
Автор: Nickolas3434 | Размер: 1.09 ГБ | Добавлен: 20 авг 2015
Раздают: 6    Качают: 2
Скачать торрент
Скачать торрент
Описание торрента

СообщениеДобавлено: 20 авг 2015 

Страна: СССР
Производство: Мосфильм
Жанр: мелодрама, комедия
Год выпуска: 1949
Продолжительность: 01:12:48
Перевод: Не требуется
Cубтитры: нет
Оригинальная аудиодорожка: русский
Режиссер: Владимир Немоляев
В ролях:
Николай Крючков, Михаил Жаров, Вера Орлова, Ольга Викландт, Владимир Попов, Нина Федосюк, Анатолий Горюнов, Сергей Антимонов...
Полный список актёров
Описание:
Плоскостный вариант cтереофильма в прокате под названием - "Машина 22-12" (1947).
Шофер Синичкин (Николай Крючков) получил машину "22-12" - старенькую потрепанную полуторку, которая досталась ему "в наследство" от шофера Зачесова (Михаил Жаров), пересевшего на новый "ЗиС". Синичкин отремонтировал машину, и шоферские будни принесли работящему и веселому водителю успех у женщин: к нему стала благоволить диспетчер Телегина, а дорожное происшествие познакомило с милой Фенечкой (Вера Орлова), работающей на бензоколонке. Девушка сумела сделать правильный выбор между Синичкиным и Зачесовым, который в работе и любви искал "легкие пути". Счастливый финал: завгар передал Синичкину "ЗиС", Зачесов снова пересел на "22-12" и начал понемногу исправляться, а Феня и Синичкин сыграли свадьбу. В фильме звучат популярные в прошлом песни. Одна из них - "Здравствуй, столица! Здравствуй, Москва!"





Источник: DVD5 R5
Качество видео: DVDRip
Формат видео: AVI
Видео: 704x528 (4:3), 25 fps, XviD ~ 1936 kbps avg, 0.208 bit/pixel
Аудио: 48 kHz, Dolby Digital AC3 2.0, 192 kbps
Раздача от:
Общее
Полное имя : Schastlivyy.reys.1949.DVDRip_[New-team]_by_AVP_Studio.avi
Формат : AVI
Формат/Информация : Audio Video Interleave
Размер файла : 1,09 Гбайт
Продолжительность : 1 ч. 12 м.
Общий поток : 2138 Кбит/сек
Программа кодирования : VirtualDubMod 1.5.10.3 | www.virtualdub-fr.org || (build 2550/release)
Библиотека кодирования : VirtualDubMod build 2550/release
Видео
Идентификатор : 0
Формат : MPEG-4 Visual
Профиль формата : Advanced Simple@L5
Параметр BVOP формата : 1
Параметр QPel формата : Нет
Параметр GMC формата : Без точки перехода
Параметр матрицы формата : Выборочная
Идентификатор кодека : XVID
Идентификатор кодека/Подсказка : XviD
Продолжительность : 1 ч. 12 м.
Битрейт : 1936 Кбит/сек
Ширина : 704 пикселя
Высота : 528 пикселей
Соотношение сторон : 4:3
Частота кадров : 25,000 кадров/сек
Цветовое пространство : YUV
Субдискретизация насыщенности : 4:2:0
Битовая глубина : 8 бит
Тип развёртки : Прогрессивная
Метод сжатия : С потерями
Бит/(Пиксели*Кадры) : 0.208
Размер потока : 1008 Мбайт (91%)
Библиотека кодирования : XviD 73
Аудио
Идентификатор : 1
Формат : AC-3
Формат/Информация : Audio Coding 3
Расширение режима : CM (complete main)
Параметр Endianness формата : Big
Идентификатор кодека : 2000
Продолжительность : 1 ч. 12 м.
Вид битрейта : Постоянный
Битрейт : 192 Кбит/сек
Каналы : 2 канала
Расположение каналов : Front: L R
Частота : 48,0 КГц
Метод сжатия : С потерями
Размер потока : 100,0 Мбайт (9%)
Выравнивание : Разделение по промежуткам
Продолжительность промежутка : 40 мс. (1,00 видеокадр)
Время предзагрузки промежутка : 500 мс





   Похожие торренты   Торрент   Размер 
В этой теме нет новых непрочитанных сообщений. Счастливый рейс (1949) DVDRip-AVC от New-Team

31 | 5

1.09 ГБ

В этой теме нет новых непрочитанных сообщений. Счастливый рейс (1949) DVDRip от New-Team

22 | 5

743.99 МБ

В этой теме нет новых непрочитанных сообщений. Очередной рейс (1958) DVDRip от New-Team

12 | 1

745.23 МБ

В этой теме нет новых непрочитанных сообщений. Очередной рейс (1958) DVDRip-AVC от New-Team

15 | 0

1.09 ГБ

В этой теме нет новых непрочитанных сообщений. Очередной рейс (1958) DVDRip от New-Team

3 | 1

1.09 ГБ

В этой теме нет новых непрочитанных сообщений. У них есть Родина (1949) DVDRip от New-Team

8 | 9

1.09 ГБ

В этой теме нет новых непрочитанных сообщений. Счастливого плавания! (1949) DVDRip от New-Team

8 | 4

745.02 МБ




Вы не можете начинать темы
Вы не можете отвечать на сообщения
Вы не можете редактировать свои сообщения
Вы не можете удалять свои сообщения
Вы не можете добавлять вложения

Перейти:  
Для Мосгорсуда, Роскомнадзора и рекламодателей: mosgorsud-torrent[собачка]yandex.ru
 Вход
ppkBB3cker v.2 © 2008-2014 @ PPK
[ Time : 1.122s | 17 Queries | GZIP : Off ]

cron