img image001 image001 image001 image001 image001 image001 image001 image001 image001 image001 image001 image001 image001 image001 image001

Planets Sun Sun Sun
Статистика раздачи
Автор: Nickolas3434 | Размер: 743.99 МБ | Добавлен: 20 авг 2015
Раздают: 22    Качают: 5
Скачать торрент
Скачать торрент
Описание торрента

СообщениеДобавлено: 20 авг 2015 

Страна: СССР
Производство: Мосфильм
Жанр: мелодрама, комедия
Год выпуска: 1949
Продолжительность: 01:12:48
Перевод: Не требуется
Cубтитры: нет
Оригинальная аудиодорожка: русский
Режиссер: Владимир Немоляев
В ролях:
Николай Крючков, Михаил Жаров, Вера Орлова, Ольга Викландт, Владимир Попов, Нина Федосюк, Анатолий Горюнов, Сергей Антимонов...
Полный список актёров
Описание:
Плоскостный вариант cтереофильма в прокате под названием - "Машина 22-12" (1947).
Шофер Синичкин (Николай Крючков) получил машину "22-12" - старенькую потрепанную полуторку, которая досталась ему "в наследство" от шофера Зачесова (Михаил Жаров), пересевшего на новый "ЗиС". Синичкин отремонтировал машину, и шоферские будни принесли работящему и веселому водителю успех у женщин: к нему стала благоволить диспетчер Телегина, а дорожное происшествие познакомило с милой Фенечкой (Вера Орлова), работающей на бензоколонке. Девушка сумела сделать правильный выбор между Синичкиным и Зачесовым, который в работе и любви искал "легкие пути". Счастливый финал: завгар передал Синичкину "ЗиС", Зачесов снова пересел на "22-12" и начал понемногу исправляться, а Феня и Синичкин сыграли свадьбу. В фильме звучат популярные в прошлом песни. Одна из них - "Здравствуй, столица! Здравствуй, Москва!"





Источник: DVD5 R5
Качество видео: DVDRip
Формат видео: AVI
Видео: 640x480 (4:3), 25 fps, XviD ~ 1291 kbps avg, 0.168 bit/pixel
Аудио: 48 kHz, MP3 2.0, 128 kbps
Раздача от:
Общее
Полное имя : Schastlivyy.reys.1949.DVDRip-745_[New-team]_by_AVP_Studio.avi
Формат : AVI
Формат/Информация : Audio Video Interleave
Размер файла : 744 Мбайт
Продолжительность : 1 ч. 12 м.
Общий поток : 1429 Кбит/сек
Программа кодирования : VirtualDubMod 1.5.10.3 | www.virtualdub-fr.org || (build 2550/release)
Библиотека кодирования : VirtualDubMod build 2550/release
Видео
Идентификатор : 0
Формат : MPEG-4 Visual
Профиль формата : Advanced Simple@L5
Параметр BVOP формата : 1
Параметр QPel формата : Нет
Параметр GMC формата : Без точки перехода
Параметр матрицы формата : Выборочная
Идентификатор кодека : XVID
Идентификатор кодека/Подсказка : XviD
Продолжительность : 1 ч. 12 м.
Битрейт : 1291 Кбит/сек
Ширина : 640 пикселей
Высота : 480 пикселей
Соотношение сторон : 4:3
Частота кадров : 25,000 кадров/сек
Цветовое пространство : YUV
Субдискретизация насыщенности : 4:2:0
Битовая глубина : 8 бит
Тип развёртки : Прогрессивная
Метод сжатия : С потерями
Бит/(Пиксели*Кадры) : 0.168
Размер потока : 672 Мбайт (90%)
Библиотека кодирования : XviD 73
Аудио
Идентификатор : 1
Формат : MPEG Audio
Версия формата : Version 1
Профиль формата : Layer 3
Идентификатор кодека : 55
Идентификатор кодека/Подсказка : MP3
Продолжительность : 1 ч. 12 м.
Вид битрейта : Постоянный
Битрейт : 128 Кбит/сек
Каналы : 2 канала
Частота : 48,0 КГц
Метод сжатия : С потерями
Размер потока : 66,6 Мбайт (9%)
Выравнивание : Соединение по промежуткам
Продолжительность промежутка : 40 мс. (1,00 видеокадр)
Время предзагрузки промежутка : 504 мс.
Библиотека кодирования : LAME3.99r
Настройки программы : -m s -V 4 -q 2 -lowpass 17 -b 128





   Похожие торренты   Торрент   Размер 
В этой теме нет новых непрочитанных сообщений. Счастливый рейс (1949) DVDRip от New-Team

6 | 2

1.09 ГБ

В этой теме нет новых непрочитанных сообщений. Счастливый рейс (1949) DVDRip-AVC от New-Team

31 | 5

1.09 ГБ

В этой теме нет новых непрочитанных сообщений. Очередной рейс (1958) DVDRip от New-Team

12 | 1

745.23 МБ

В этой теме нет новых непрочитанных сообщений. Очередной рейс (1958) DVDRip от New-Team

3 | 1

1.09 ГБ

В этой теме нет новых непрочитанных сообщений. Очередной рейс (1958) DVDRip-AVC от New-Team

15 | 0

1.09 ГБ

В этой теме нет новых непрочитанных сообщений. У них есть Родина (1949) DVDRip-AVC от New-Team

43 | 23

1.09 ГБ

В этой теме нет новых непрочитанных сообщений. Встреча на Эльбе (1949) DVDRip-AVC от New-Team

22 | 5

1.46 ГБ




Вы не можете начинать темы
Вы не можете отвечать на сообщения
Вы не можете редактировать свои сообщения
Вы не можете удалять свои сообщения
Вы не можете добавлять вложения

Перейти:  
Для Мосгорсуда, Роскомнадзора и рекламодателей: mosgorsud-torrent[собачка]yandex.ru
 Вход
ppkBB3cker v.2 © 2008-2014 @ PPK
[ Time : 0.040s | 16 Queries | GZIP : Off ]

cron