img image001 image001 image001 image001 image001 image001 image001 image001 image001 image001 image001 image001 image001 image001 image001

Planets Sun Sun Sun
Статистика раздачи
Автор: Nickolas3434 | Размер: 1.46 ГБ | Добавлен: 21 авг 2015
Раздают: 5    Качают: 3
Скачать торрент
Скачать торрент
Описание торрента

СообщениеДобавлено: 21 авг 2015 

Страна: СССР
Производство: Мосфильм
Жанр: военный
Год выпуска: 1949
Продолжительность: 01:37:25
Перевод: Не требуется
Cубтитры: нет
Оригинальная аудиодорожка: русский
Режиссер: Григорий Александров
В ролях:
Владлен Давыдов, Константин Нассонов, Борис Андреев, Михаил Названов, Любовь Орлова, Иван Любезнов, Владимир Владиславский, Фаина Раневская, Эраст Гарин, Сергей Ценин, Юрий Юровский, Геннадий Юдин, Виктор Кулаков, Лидия Сухаревская, М. Мамин, Николай Никитич, Пётр Старковский, Борис Свобода, Андрей Файт...
Полный список актёров
Описание:
Советские и американские войска встречаются на берегах Эльбы в последние дни Великой отечественной войны. Советское командование пытается наладить мирную жизнь в разоренной Германии. Американцы же с помощью бывшего нациста пытаются получить секретные военные разработки…





Источник: DVD5 R5
Качество видео: DVDRip
Формат видео: AVI
Видео: 704x528 (4:3), 25 fps, XviD ~ 1941 kbps avg, 0.209 bit/pixel
Аудио: 48 kHz, Dolby Digital AC3 2.0, 192 kbps
Раздача от:
Общее
Полное имя : Vstrecha.na.Jelbe.1949.DVDRip_[New-team]_by_AVP_Studio.avi
Формат : AVI
Формат/Информация : Audio Video Interleave
Размер файла : 1,46 Гбайт
Продолжительность : 1 ч. 37 м.
Общий поток : 2142 Кбит/сек
Программа кодирования : VirtualDubMod 1.5.10.3 | www.virtualdub-fr.org || (build 2550/release)
Библиотека кодирования : VirtualDubMod build 2550/release
Видео
Идентификатор : 0
Формат : MPEG-4 Visual
Профиль формата : Advanced Simple@L5
Параметр BVOP формата : 1
Параметр QPel формата : Нет
Параметр GMC формата : Без точки перехода
Параметр матрицы формата : Выборочная
Идентификатор кодека : XVID
Идентификатор кодека/Подсказка : XviD
Продолжительность : 1 ч. 37 м.
Битрейт : 1941 Кбит/сек
Ширина : 704 пикселя
Высота : 528 пикселей
Соотношение сторон : 4:3
Частота кадров : 25,000 кадров/сек
Цветовое пространство : YUV
Субдискретизация насыщенности : 4:2:0
Битовая глубина : 8 бит
Тип развёртки : Прогрессивная
Метод сжатия : С потерями
Бит/(Пиксели*Кадры) : 0.209
Размер потока : 1,32 Гбайт (91%)
Библиотека кодирования : XviD 73
Аудио
Идентификатор : 1
Формат : AC-3
Формат/Информация : Audio Coding 3
Расширение режима : CM (complete main)
Параметр Endianness формата : Big
Идентификатор кодека : 2000
Продолжительность : 1 ч. 37 м.
Вид битрейта : Постоянный
Битрейт : 192 Кбит/сек
Каналы : 2 канала
Расположение каналов : Front: L R
Частота : 48,0 КГц
Метод сжатия : С потерями
Размер потока : 133 Мбайт (9%)
Выравнивание : Разделение по промежуткам
Продолжительность промежутка : 40 мс. (1,00 видеокадр)
Время предзагрузки промежутка : 500 мс





   Похожие торренты   Торрент   Размер 
В этой теме нет новых непрочитанных сообщений. Встреча на Эльбе (1949) DVDRip-AVC от New-Team

22 | 5

1.46 ГБ

В этой теме нет новых непрочитанных сообщений. Встреча на Эльбе (1949) DVDRip от New-Team

14 | 6

744.18 МБ

В этой теме нет новых непрочитанных сообщений. Встреча на Эльбе / Begegnung An Der Elbe (1949) DVDRip-AVC | Немецкая версия

14 | 2

1.92 ГБ

В этой теме нет новых непрочитанных сообщений. Встреча на Эльбе (2005) SATRip от AND03AND

26 | 9

370.28 МБ

В этой теме нет новых непрочитанных сообщений. Случайная встреча (1936) DVDRip-AVC от New-Team

8 | 5

744.38 МБ

В этой теме нет новых непрочитанных сообщений. Случайная встреча (1936) DVDRip от New-Team

10 | 7

1.09 ГБ

В этой теме нет новых непрочитанных сообщений. Случайная встреча (1936) DVDRip от New-Team

4 | 3

742.43 МБ




Вы не можете начинать темы
Вы не можете отвечать на сообщения
Вы не можете редактировать свои сообщения
Вы не можете удалять свои сообщения
Вы не можете добавлять вложения

Перейти:  
Для Мосгорсуда, Роскомнадзора и рекламодателей: mosgorsud-torrent[собачка]yandex.ru
 Вход
ppkBB3cker v.2 © 2008-2014 @ PPK
[ Time : 0.045s | 16 Queries | GZIP : Off ]

cron