img image001 image001 image001 image001 image001 image001 image001 image001 image001 image001 image001 image001 image001 image001 image001

Planets Sun Sun Sun
Статистика раздачи
Автор: Nickolas3434 | Размер: 744.18 МБ | Добавлен: 21 авг 2015
Раздают: 21    Качают: 8
Скачать торрент
Скачать торрент
Описание торрента

СообщениеДобавлено: 21 авг 2015 

Страна: СССР
Производство: Мосфильм
Жанр: военный
Год выпуска: 1949
Продолжительность: 01:37:25
Перевод: Не требуется
Cубтитры: нет
Оригинальная аудиодорожка: русский
Режиссер: Григорий Александров
В ролях:
Владлен Давыдов, Константин Нассонов, Борис Андреев, Михаил Названов, Любовь Орлова, Иван Любезнов, Владимир Владиславский, Фаина Раневская, Эраст Гарин, Сергей Ценин, Юрий Юровский, Геннадий Юдин, Виктор Кулаков, Лидия Сухаревская, М. Мамин, Николай Никитич, Пётр Старковский, Борис Свобода, Андрей Файт...
Полный список актёров
Описание:
Советские и американские войска встречаются на берегах Эльбы в последние дни Великой отечественной войны. Советское командование пытается наладить мирную жизнь в разоренной Германии. Американцы же с помощью бывшего нациста пытаются получить секретные военные разработки…





Источник: DVD5 R5
Качество видео: DVDRip
Формат видео: AVI
Видео: 592x432 (1,370:1), 25 fps, XviD ~ 931 kbps avg, 0.146 bit/pixel
Аудио: 48 kHz, MP3 2.0, 128 kbps
Раздача от:
Общее
Полное имя : Vstrecha.na.Jelbe.1949.DVDRip-745_[New-team]_by_AVP_Studio.avi
Формат : AVI
Формат/Информация : Audio Video Interleave
Размер файла : 744 Мбайт
Продолжительность : 1 ч. 37 м.
Общий поток : 1068 Кбит/сек
Программа кодирования : VirtualDubMod 1.5.10.3 | www.virtualdub-fr.org || (build 2550/release)
Библиотека кодирования : VirtualDubMod build 2550/release
Видео
Идентификатор : 0
Формат : MPEG-4 Visual
Профиль формата : Advanced Simple@L5
Параметр BVOP формата : 1
Параметр QPel формата : Нет
Параметр GMC формата : Без точки перехода
Параметр матрицы формата : Выборочная
Идентификатор кодека : XVID
Идентификатор кодека/Подсказка : XviD
Продолжительность : 1 ч. 37 м.
Битрейт : 931 Кбит/сек
Ширина : 592 пикселя
Высота : 432 пикселя
Соотношение сторон : 1,370
Частота кадров : 25,000 кадров/сек
Цветовое пространство : YUV
Субдискретизация насыщенности : 4:2:0
Битовая глубина : 8 бит
Тип развёртки : Прогрессивная
Метод сжатия : С потерями
Бит/(Пиксели*Кадры) : 0.146
Размер потока : 649 Мбайт (87%)
Библиотека кодирования : XviD 73
Аудио
Идентификатор : 1
Формат : MPEG Audio
Версия формата : Version 1
Профиль формата : Layer 3
Идентификатор кодека : 55
Идентификатор кодека/Подсказка : MP3
Продолжительность : 1 ч. 37 м.
Вид битрейта : Постоянный
Битрейт : 128 Кбит/сек
Каналы : 2 канала
Частота : 48,0 КГц
Метод сжатия : С потерями
Размер потока : 88,9 Мбайт (12%)
Выравнивание : Соединение по промежуткам
Продолжительность промежутка : 40 мс. (1,00 видеокадр)
Время предзагрузки промежутка : 504 мс.
Библиотека кодирования : LAME3.99r
Настройки программы : -m s -V 4 -q 2 -lowpass 17 -b 128





   Похожие торренты   Торрент   Размер 
В этой теме нет новых непрочитанных сообщений. Встреча на Эльбе (1949) DVDRip-AVC от New-Team

23 | 8

1.46 ГБ

В этой теме нет новых непрочитанных сообщений. Встреча на Эльбе (1949) DVDRip от New-Team

10 | 4

1.46 ГБ

В этой теме нет новых непрочитанных сообщений. Встреча на Эльбе / Begegnung An Der Elbe (1949) DVDRip-AVC | Немецкая версия

14 | 2

1.92 ГБ

В этой теме нет новых непрочитанных сообщений. Встреча на Эльбе (2005) SATRip от AND03AND

25 | 9

370.28 МБ

В этой теме нет новых непрочитанных сообщений. Случайная встреча (1936) DVDRip от New-Team

18 | 9

1.09 ГБ

В этой теме нет новых непрочитанных сообщений. Случайная встреча (1936) DVDRip-AVC от New-Team

15 | 7

744.38 МБ

В этой теме нет новых непрочитанных сообщений. Случайная встреча (1936) DVDRip от New-Team

5 | 5

742.43 МБ




Вы не можете начинать темы
Вы не можете отвечать на сообщения
Вы не можете редактировать свои сообщения
Вы не можете удалять свои сообщения
Вы не можете добавлять вложения

Перейти:  
Для Мосгорсуда, Роскомнадзора и рекламодателей: mosgorsud-torrent[собачка]yandex.ru
 Вход
ppkBB3cker v.2 © 2008-2014 @ PPK
[ Time : 0.984s | 15 Queries | GZIP : Off ]

Торрент трекер RUTOR.IN, Не можете зайти на rutor.org? Какой новый адрес рутор? Какое зеркало рутор? Не работает rutor.org и зеркала? Тогда наш торрент специально для вас. Rutor.in неофициальное зеркало rutor. В случае если у Вас заблокирован rutor или вдруг Вы не можете на него зайти, то Вы без труда сможете скачать бесплатно и без рекламы последние новинки кино, игр, сериалов и прочего у нас, на Rutor.in. Не нужно использовать прокси, чтобы зайти на рутор, достаточно воспользоваться нашим ресурсом. Все новые фильмы, игры, сериалы, книги и музыка за 2013 и 2014 годы через торрент бесплатно. Скачивайте фильмы в хорошем качестве, игры для пк, xbox, playstation без регистрации. У нас вы найдете новые Зарубежные сериалы и Русские сериалы 2013, 2014, 2015 годов. Оставайтесь с нами, качайте любимые фильмы, игры, сериалы, книги и музыку.