img image001 image001 image001 image001 image001 image001 image001 image001 image001 image001 image001 image001 image001 image001 image001

Planets Sun Sun Sun
Статистика раздачи
Автор: Nickolas3434 | Размер: 1.46 ГБ | Добавлен: 24 авг 2015
Раздают: 16    Качают: 6
Скачать торрент
Скачать торрент
Описание торрента

СообщениеДобавлено: 24 авг 2015 

Страна: СССР
Производство: Ленфильм
Жанр: драма, биография
Год выпуска: 1949
Продолжительность: 01:26:50
Перевод: Не требуется
Cубтитры: нет
Оригинальная аудиодорожка: русский
Режиссер: Виктор Эйсымонт, Герберт Раппапорт
В ролях:
Николай Черкасов, Александр Борисов, Константин Скоробогатов, Илья Судаков, Юрий Толубеев, Владимир Честноков, Ксения Благовещенская, Леонид Вивьен, Бруно Фрейндлих, Осип Абдулов, Виталий Полицеймако...
Полный список актёров
Описание:
Биографический фильм о жизни и деятельности выдающегося физика-электротехника, изобретателя радиосвязи Александра Семеновича Попова (1859-1905). В процессе научного поиска талант и наблюдательность Попова позволили ему совершить ряд уникальных открытий. Изобретенный им беспроволочный телеграф впервые был применен в тяжелейших условиях полярного севера, спасении людей, оказавшихся на льдине в открытом океане...





Источник: DVD5 R5
Качество видео: DVDRip
Формат видео: AVI
Видео: 688x512 (4:3), 25 fps, XviD ~ 2205 kbps avg, 0.250 bit/pixel
Аудио: 48 kHz, Dolby Digital AC3 2.0, 192 kbps
Раздача от:
Общее
Полное имя : Aleksandr.Popov.1949.DVDRip_[New-team]_by_AVP_Studio.avi
Формат : AVI
Формат/Информация : Audio Video Interleave
Размер файла : 1,46 Гбайт
Продолжительность : 1 ч. 26 м.
Общий поток : 2406 Кбит/сек
Программа кодирования : VirtualDubMod 1.5.10.3 | www.virtualdub-fr.org || (build 2550/release)
Библиотека кодирования : VirtualDubMod build 2550/release
Видео
Идентификатор : 0
Формат : MPEG-4 Visual
Профиль формата : Advanced Simple@L5
Параметр BVOP формата : 1
Параметр QPel формата : Нет
Параметр GMC формата : Без точки перехода
Параметр матрицы формата : Выборочная
Идентификатор кодека : XVID
Идентификатор кодека/Подсказка : XviD
Продолжительность : 1 ч. 26 м.
Битрейт : 2205 Кбит/сек
Ширина : 688 пикселей
Высота : 512 пикселей
Соотношение сторон : 4:3
Частота кадров : 25,000 кадров/сек
Цветовое пространство : YUV
Субдискретизация насыщенности : 4:2:0
Битовая глубина : 8 бит
Тип развёртки : Прогрессивная
Метод сжатия : С потерями
Бит/(Пиксели*Кадры) : 0.250
Размер потока : 1,34 Гбайт (92%)
Библиотека кодирования : XviD 73
Аудио
Идентификатор : 1
Формат : AC-3
Формат/Информация : Audio Coding 3
Расширение режима : CM (complete main)
Параметр Endianness формата : Big
Идентификатор кодека : 2000
Продолжительность : 1 ч. 26 м.
Вид битрейта : Постоянный
Битрейт : 192 Кбит/сек
Каналы : 2 канала
Расположение каналов : Front: L R
Частота : 48,0 КГц
Метод сжатия : С потерями
Размер потока : 119 Мбайт (8%)
Выравнивание : Разделение по промежуткам
Продолжительность промежутка : 40 мс. (1,00 видеокадр)
Время предзагрузки промежутка : 500 мс





   Похожие торренты   Торрент   Размер 
В этой теме нет новых непрочитанных сообщений. Александр Попов (1949) DVDRip-AVC от New-Team

43 | 2

1.46 ГБ

В этой теме нет новых непрочитанных сообщений. Александр Попов (1949) DVDRip от New-Team

6 | 3

745.34 МБ

В этой теме нет новых непрочитанных сообщений. Александр Попов (1949) TVRip

27 | 2

780.78 МБ

В этой теме нет новых непрочитанных сообщений. Александр Попов - Тайны происхождения человечества (2002) (2009) MP3

0 | 5

519.83 МБ

В этой теме нет новых непрочитанных сообщений. Сталинградская битва (1949) DVDRip от New-Team

61 | 10

2.18 ГБ

В этой теме нет новых непрочитанных сообщений. Счастливого плавания! (1949) DVDRip-AVC от New-Team

21 | 14

1.09 ГБ

В этой теме нет новых непрочитанных сообщений. Счастливого плавания! (1949) DVDRip от New-Team

9 | 6

745.02 МБ




Вы не можете начинать темы
Вы не можете отвечать на сообщения
Вы не можете редактировать свои сообщения
Вы не можете удалять свои сообщения
Вы не можете добавлять вложения

Перейти:  
Для Мосгорсуда, Роскомнадзора и рекламодателей: mosgorsud-torrent[собачка]yandex.ru
 Вход
ppkBB3cker v.2 © 2008-2014 @ PPK
[ Time : 0.514s | 17 Queries | GZIP : Off ]

Торрент трекер RUTOR.IN, Не можете зайти на rutor.org? Какой новый адрес рутор? Какое зеркало рутор? Не работает rutor.org и зеркала? Тогда наш торрент специально для вас. Rutor.in неофициальное зеркало rutor. В случае если у Вас заблокирован rutor или вдруг Вы не можете на него зайти, то Вы без труда сможете скачать бесплатно и без рекламы последние новинки кино, игр, сериалов и прочего у нас, на Rutor.in. Не нужно использовать прокси, чтобы зайти на рутор, достаточно воспользоваться нашим ресурсом. Все новые фильмы, игры, сериалы, книги и музыка за 2013 и 2014 годы через торрент бесплатно. Скачивайте фильмы в хорошем качестве, игры для пк, xbox, playstation без регистрации. У нас вы найдете новые Зарубежные сериалы и Русские сериалы 2013, 2014, 2015 годов. Оставайтесь с нами, качайте любимые фильмы, игры, сериалы, книги и музыку.
cron