img image001 image001 image001 image001 image001 image001 image001 image001 image001 image001 image001 image001 image001 image001 image001

Planets Sun Sun Sun
Статистика раздачи
Автор: Nickolas3434 | Размер: 697.13 МБ | Добавлен: 24 авг 2015
Раздают: 685    Качают: 74
Скачать торрент
Скачать торрент
Описание торрента

СообщениеДобавлено: 24 авг 2015 

Информация о фильме
Название: Рэкетир 2
Год выхода: 2015
Жанр: боевик, драма, криминал
Режиссер: Акан Сатаев
В ролях: Аружан Джазильбекова, Асель Сагатова, Аян Утепберген, Фархад Абдраимов, Саят Исембаев, Жан Байжанбаев, Азамат Сатыбалды, Дастен Шакиров
О фильме: Судьба дарит главному герою второй шанс. Все считали его погибшим. С момента гибели Руслана прошло уже десять лет. Саян — преданный помощник Руслана — принял решение отойти от дел и начать жизнь с чистого листа. Когда к нему в дом пришел младший брат погибшего начальника Була, Саян насторожился. И не зря. Була хотел мести, но Саян не готов возвращаться к прошлому. Тут-то и начинается самое интересное…
Выпущено: Казахстан
Продолжительность: 01:46:06
Озвучивание: Оригинальное
Файл
Формат: AVI (XviD)
Качество: CAMRip
Видео: 780 kb/s, 624x320
Аудио: MP3, 128 kb/s (2 ch)
Размер: 700 MB

General
Complete name : C:UsersuserDesktopR3ketir-2.2015.O.CAMRip.700MB.avi
Format : AVI
Format/Info : Audio Video Interleave
File size : 697 MiB
Duration : 1h 46mn
Overall bit rate : 919 Kbps
Writing application : VirtualDubMod 1.5.10.2 (build 2540/release)
Writing library : VirtualDubMod build 2540/release
Video
ID : 0
Format : MPEG-4 Visual
Format profile : Advanced Simple@L5
Format settings, BVOP : 2
Format settings, QPel : No
Format settings, GMC : No warppoints
Format settings, Matrix : Default (MPEG)
Codec ID : XVID
Codec ID/Hint : XviD
Duration : 1h 46mn
Bit rate : 781 Kbps
Width : 624 pixels
Height : 320 pixels
Display aspect ratio : 1.950
Frame rate : 25.000 fps
Color space : YUV
Chroma subsampling : 4:2:0
Bit depth : 8 bits
Scan type : Progressive
Compression mode : Lossy
Bits/(Pixel*Frame) : 0.156
Stream size : 593 MiB (85%)
Writing library : XviD 1.2.1 (UTC 2008-12-04)
Audio
ID : 1
Format : MPEG Audio
Format version : Version 1
Format profile : Layer 3
Codec ID : 55
Codec ID/Hint : MP3
Duration : 1h 46mn
Bit rate mode : Constant
Bit rate : 128 Kbps
Channel(s) : 2 channels
Sampling rate : 44.1 KHz
Compression mode : Lossy
Stream size : 97.1 MiB (14%)
Alignment : Split accross interleaves
Interleave, duration : 40 ms (1.00 video frame)
Interleave, preload duration : 500 ms













   Похожие торренты   Торрент   Размер 
В этой теме нет новых непрочитанных сообщений. Рэкетир 2 (2015) CAMRip

7186 | 237

1.36 ГБ

В этой теме нет новых непрочитанных сообщений. Рэкетир 2 (2015) WEBRip

9900 | 333

1.37 ГБ

В этой теме нет новых непрочитанных сообщений. Рэкетир 2 (2015) WEBRip

889 | 42

698.99 МБ

В этой теме нет новых непрочитанных сообщений. Рэкетир 2 (2015) WEBRip от ExKinoRay

2559 | 98

720.88 МБ

В этой теме нет новых непрочитанных сообщений. Рэкетир 2 (2015) WEB-DLRip от MegaPeer

140 | 22

746.62 МБ

В этой теме нет новых непрочитанных сообщений. Рэкетир 2 (2015) WEB-DLRip от MegaPeer

408 | 76

1.46 ГБ

В этой теме нет новых непрочитанных сообщений. Рэкетир 2 (2015) WEB-DLRip 720p от MegaPeer

1083 | 149

2.15 ГБ




Вы не можете начинать темы
Вы не можете отвечать на сообщения
Вы не можете редактировать свои сообщения
Вы не можете удалять свои сообщения
Вы не можете добавлять вложения

Перейти:  
Для Мосгорсуда, Роскомнадзора и рекламодателей: mosgorsud-torrent[собачка]yandex.ru
 Вход
ppkBB3cker v.2 © 2008-2014 @ PPK
[ Time : 0.056s | 15 Queries | GZIP : Off ]

Торрент трекер RUTOR.IN, Не можете зайти на rutor.org? Какой новый адрес рутор? Какое зеркало рутор? Не работает rutor.org и зеркала? Тогда наш торрент специально для вас. Rutor.in неофициальное зеркало rutor. В случае если у Вас заблокирован rutor или вдруг Вы не можете на него зайти, то Вы без труда сможете скачать бесплатно и без рекламы последние новинки кино, игр, сериалов и прочего у нас, на Rutor.in. Не нужно использовать прокси, чтобы зайти на рутор, достаточно воспользоваться нашим ресурсом. Все новые фильмы, игры, сериалы, книги и музыка за 2013 и 2014 годы через торрент бесплатно. Скачивайте фильмы в хорошем качестве, игры для пк, xbox, playstation без регистрации. У нас вы найдете новые Зарубежные сериалы и Русские сериалы 2013, 2014, 2015 годов. Оставайтесь с нами, качайте любимые фильмы, игры, сериалы, книги и музыку.