img image001 image001 image001 image001 image001 image001 image001 image001 image001 image001 image001 image001 image001 image001 image001

Planets Sun Sun Sun
Статистика раздачи
Автор: Nickolas3434 | Размер: 745.36 МБ | Добавлен: 24 авг 2015
Раздают: 28    Качают: 5
Скачать торрент
Скачать торрент
Описание торрента

СообщениеДобавлено: 24 авг 2015 

Страна: СССР
Производство: Беларусьфильм
Жанр: боевик, драма, военный
Год выпуска: 1949
Продолжительность: 01:10:52
Перевод: Не требуется
Cубтитры: нет
Оригинальная аудиодорожка: русский
Режиссер: Александр Файнциммер, Владимир Корш-Саблин
В ролях:
Владимир Дружников, Юрий Толубеев, Александр Хвыля, Глеб Глебов, Владимир Дорофеев, Владимир Дедюшко, Владимир Балашов, Инна Кондратьева, Лидия Штыкан, Владимир Марьев, Яков Малютин, Геннадий Мичурин, Владимир Соловьёв, Лев Фенин, Здислав Стомма, Татьяна Барышева, Эльвира (Эльва) Луценко...
Полный список актёров
Описание:
Историко-биографический фильм по пьесе А. Мовзона.
Фильм рассказывает о борьбе белорусских партизан в годы Великой Отечественной войны под руководством бывшего инженера, легендарного организатора и руководителя партизанского движения К.С.Заслонова (1910-1942).
Осень 1941 года. После эвакуации начальник Оршанского депо Заслонов (Владимир Дружников) обращается в ЦК КП Белоруссии с предложением о создании подпольной группы и получает от секретаря ЦК задание вернуться в Оршу. Заслонов без труда устраивается на работу в депо, так как немцам очень нужны опытные специалисты. Подпольщики получают от инженера задание делать угольные мины и взрывать паровозы. А вскоре Константину Заслонову и его помощникам удается полностью парализовать деятельность узла, заморозив его водную систему. Немцы арестовывают Заслонова, но ему удается бежать во время атаки советской авиации. Он принимает командование всеми партизанскими отрядами Оршанской зоны и ведет своих бойцов, среди которых его соратники по подпольной борьбе, в бой...





Источник: DVD5 R5
Качество видео: DVDRip
Формат видео: AVI
Видео: 688x512 (4:3), 25 fps, XviD ~ 1333 kbps avg, 0.151 bit/pixel
Аудио: 48 kHz, MP3 2.0, 128 kbps
Раздача от:
Общее
Полное имя : Konstantin.Zaslonov.1949.DVDRip-745_[New-team]_by_AVP_Studio.avi
Формат : AVI
Формат/Информация : Audio Video Interleave
Размер файла : 745 Мбайт
Продолжительность : 1 ч. 10 м.
Общий поток : 1471 Кбит/сек
Программа кодирования : VirtualDubMod 1.5.10.3 | www.virtualdub-fr.org || (build 2550/release)
Библиотека кодирования : VirtualDubMod build 2550/release
Видео
Идентификатор : 0
Формат : MPEG-4 Visual
Профиль формата : Advanced Simple@L5
Параметр BVOP формата : 1
Параметр QPel формата : Нет
Параметр GMC формата : Без точки перехода
Параметр матрицы формата : Выборочная
Идентификатор кодека : XVID
Идентификатор кодека/Подсказка : XviD
Продолжительность : 1 ч. 10 м.
Битрейт : 1333 Кбит/сек
Ширина : 688 пикселей
Высота : 512 пикселей
Соотношение сторон : 4:3
Частота кадров : 25,000 кадров/сек
Цветовое пространство : YUV
Субдискретизация насыщенности : 4:2:0
Битовая глубина : 8 бит
Тип развёртки : Прогрессивная
Метод сжатия : С потерями
Бит/(Пиксели*Кадры) : 0.151
Размер потока : 676 Мбайт (91%)
Библиотека кодирования : XviD 73
Аудио
Идентификатор : 1
Формат : MPEG Audio
Версия формата : Version 1
Профиль формата : Layer 3
Идентификатор кодека : 55
Идентификатор кодека/Подсказка : MP3
Продолжительность : 1 ч. 10 м.
Вид битрейта : Постоянный
Битрейт : 128 Кбит/сек
Каналы : 2 канала
Частота : 48,0 КГц
Метод сжатия : С потерями
Размер потока : 64,9 Мбайт (9%)
Выравнивание : Соединение по промежуткам
Продолжительность промежутка : 40 мс. (1,00 видеокадр)
Время предзагрузки промежутка : 504 мс.
Библиотека кодирования : LAME3.99r
Настройки программы : -m s -V 4 -q 2 -lowpass 17 -b 128





   Похожие торренты   Торрент   Размер 
В этой теме нет новых непрочитанных сообщений. Константин Заслонов (1949) DVDRip от New-Team

20 | 3

1.09 ГБ

В этой теме нет новых непрочитанных сообщений. Константин Заслонов (1949) DVDRip-AVC от New-Team

37 | 12

1.09 ГБ

В этой теме нет новых непрочитанных сообщений. Константин Заслонов (1949) DVDRip

12 | 6

1.09 ГБ

В этой теме нет новых непрочитанных сообщений. Падение Берлина (1949) DVDRip от New-Team

189 | 16

1.46 ГБ

В этой теме нет новых непрочитанных сообщений. Счастливый рейс (1949) DVDRip от New-Team

11 | 4

1.09 ГБ

В этой теме нет новых непрочитанных сообщений. У них есть Родина (1949) DVDRip-AVC от New-Team

45 | 27

1.09 ГБ

В этой теме нет новых непрочитанных сообщений. Счастливый рейс (1949) DVDRip от New-Team

29 | 8

743.99 МБ




Вы не можете начинать темы
Вы не можете отвечать на сообщения
Вы не можете редактировать свои сообщения
Вы не можете удалять свои сообщения
Вы не можете добавлять вложения

Перейти:  
Для Мосгорсуда, Роскомнадзора и рекламодателей: mosgorsud-torrent[собачка]yandex.ru
 Вход
ppkBB3cker v.2 © 2008-2014 @ PPK
[ Time : 0.037s | 15 Queries | GZIP : Off ]

Торрент трекер RUTOR.IN, Не можете зайти на rutor.org? Какой новый адрес рутор? Какое зеркало рутор? Не работает rutor.org и зеркала? Тогда наш торрент специально для вас. Rutor.in неофициальное зеркало rutor. В случае если у Вас заблокирован rutor или вдруг Вы не можете на него зайти, то Вы без труда сможете скачать бесплатно и без рекламы последние новинки кино, игр, сериалов и прочего у нас, на Rutor.in. Не нужно использовать прокси, чтобы зайти на рутор, достаточно воспользоваться нашим ресурсом. Все новые фильмы, игры, сериалы, книги и музыка за 2013 и 2014 годы через торрент бесплатно. Скачивайте фильмы в хорошем качестве, игры для пк, xbox, playstation без регистрации. У нас вы найдете новые Зарубежные сериалы и Русские сериалы 2013, 2014, 2015 годов. Оставайтесь с нами, качайте любимые фильмы, игры, сериалы, книги и музыку.