img image001 image001 image001 image001 image001 image001 image001 image001 image001 image001 image001 image001 image001 image001 image001

Planets Sun Sun Sun
Статистика раздачи
Автор: Nickolas3434 | Размер: 1.09 ГБ | Добавлен: 24 авг 2015
Раздают: 15    Качают: 8
Скачать торрент
Скачать торрент
Описание торрента

СообщениеДобавлено: 24 авг 2015 

Страна: СССР
Производство: Беларусьфильм
Жанр: боевик, драма, военный
Год выпуска: 1949
Продолжительность: 01:10:52
Перевод: Не требуется
Cубтитры: нет
Оригинальная аудиодорожка: русский
Режиссер: Александр Файнциммер, Владимир Корш-Саблин
В ролях:
Владимир Дружников, Юрий Толубеев, Александр Хвыля, Глеб Глебов, Владимир Дорофеев, Владимир Дедюшко, Владимир Балашов, Инна Кондратьева, Лидия Штыкан, Владимир Марьев, Яков Малютин, Геннадий Мичурин, Владимир Соловьёв, Лев Фенин, Здислав Стомма, Татьяна Барышева, Эльвира (Эльва) Луценко...
Полный список актёров
Описание:
Историко-биографический фильм по пьесе А. Мовзона.
Фильм рассказывает о борьбе белорусских партизан в годы Великой Отечественной войны под руководством бывшего инженера, легендарного организатора и руководителя партизанского движения К.С.Заслонова (1910-1942).
Осень 1941 года. После эвакуации начальник Оршанского депо Заслонов (Владимир Дружников) обращается в ЦК КП Белоруссии с предложением о создании подпольной группы и получает от секретаря ЦК задание вернуться в Оршу. Заслонов без труда устраивается на работу в депо, так как немцам очень нужны опытные специалисты. Подпольщики получают от инженера задание делать угольные мины и взрывать паровозы. А вскоре Константину Заслонову и его помощникам удается полностью парализовать деятельность узла, заморозив его водную систему. Немцы арестовывают Заслонова, но ему удается бежать во время атаки советской авиации. Он принимает командование всеми партизанскими отрядами Оршанской зоны и ведет своих бойцов, среди которых его соратники по подпольной борьбе, в бой...





Источник: DVD5 R5
Качество видео: DVDRip-AVC
Формат видео: MKV
Видео: 688->762x572 (4:3), 25 fps, H264 ~ 2006 kbps avg, 0.204 bit/pixel
Аудио: 48 kHz, Dolby Digital AC3 2.0, 192 kbps
Раздача от:
Общее
Полное имя : Konstantin.Zaslonov.1949.DVDRip-AVC_[New-team]_by_AVP_Studio.mkv
Формат : Matroska
Версия формата : Version 2
Размер файла : 1,09 Гбайт
Продолжительность : 1 ч. 10 м.
Общий поток : 2200 Кбит/сек
Дата кодирования : UTC 2015-08-21 19:14:59
Программа кодирования : mkvmerge v6.1.0 ('Old Devil') built on Mar 4 2013 09:10:42
Библиотека кодирования : libebml v1.3.0 + libmatroska v1.4.0
Видео
Идентификатор : 1
Формат : AVC
Формат/Информация : Advanced Video Codec
Профиль формата : High@L4.1
Параметр CABAC формата : Да
Параметр ReFrames формата : 8 кадров
Идентификатор кодека : V_MPEG4/ISO/AVC
Продолжительность : 1 ч. 10 м.
Битрейт : 2006 Кбит/сек
Ширина : 688 пикселей
Высота : 572 пикселя
Соотношение сторон : 4:3
Режим частоты кадров : Постоянный
Частота кадров : 25,000 кадров/сек
Цветовое пространство : YUV
Субдискретизация насыщенности : 4:2:0
Битовая глубина : 8 бит
Тип развёртки : Прогрессивная
Бит/(Пиксели*Кадры) : 0.204
Размер потока : 996 Мбайт (89%)
Библиотека кодирования : x264 core 130 r2273 b3065e6
Настройки программы : cabac=1 / ref=8 / deblock=1:-2:-1 / analyse=0x3:0x113 / me=umh / subme=10 / psy=1 / psy_rd=1.00:0.05 / mixed_ref=1 / me_range=32 / chroma_me=1 / trellis=2 / 8x8dct=1 / cqm=0 / deadzone=21,11 / fast_pskip=0 / chroma_qp_offset=-3 / threads=6 / lookahead_threads=1 / sliced_threads=0 / nr=0 / decimate=0 / interlaced=0 / bluray_compat=0 / constrained_intra=0 / bframes=8 / b_pyramid=2 / b_adapt=2 / b_bias=0 / direct=3 / weightb=1 / open_gop=0 / weightp=2 / keyint=250 / keyint_min=25 / scenecut=40 / intra_refresh=0 / rc=2pass / mbtree=0 / bitrate=2006 / ratetol=1.0 / qcomp=0.60 / qpmin=0 / qpmax=69 / qpstep=4 / cplxblur=20.0 / qblur=0.5 / ip_ratio=1.40 / pb_ratio=1.30 / aq=1:1.00
Default : Да
Forced : Нет
Аудио
Идентификатор : 2
Формат : AC-3
Формат/Информация : Audio Coding 3
Расширение режима : CM (complete main)
Параметр Endianness формата : Big
Идентификатор кодека : A_AC3
Продолжительность : 1 ч. 10 м.
Вид битрейта : Постоянный
Битрейт : 192 Кбит/сек
Каналы : 2 канала
Расположение каналов : Front: L R
Частота : 48,0 КГц
Метод сжатия : С потерями
Размер потока : 97,3 Мбайт (9%)
Default : Да
Forced : Нет





   Похожие торренты   Торрент   Размер 
В этой теме нет новых непрочитанных сообщений. Константин Заслонов (1949) DVDRip от New-Team

10 | 4

745.36 МБ

В этой теме нет новых непрочитанных сообщений. Константин Заслонов (1949) DVDRip от New-Team

14 | 0

1.09 ГБ

В этой теме нет новых непрочитанных сообщений. Константин Заслонов (1949) DVDRip

12 | 6

1.09 ГБ

В этой теме нет новых непрочитанных сообщений. Сталинградская битва (1949) DVDRip от New-Team

68 | 13

1.46 ГБ

В этой теме нет новых непрочитанных сообщений. Счастливого плавания! (1949) DVDRip-AVC от New-Team

14 | 13

1.09 ГБ

В этой теме нет новых непрочитанных сообщений. Сталинградская битва (1949) DVDRip-AVC от New-Team

154 | 10

2.9 ГБ

В этой теме нет новых непрочитанных сообщений. Александр Попов (1949) DVDRip от New-Team

11 | 1

1.46 ГБ




Вы не можете начинать темы
Вы не можете отвечать на сообщения
Вы не можете редактировать свои сообщения
Вы не можете удалять свои сообщения
Вы не можете добавлять вложения

Перейти:  
Для Мосгорсуда, Роскомнадзора и рекламодателей: mosgorsud-torrent[собачка]yandex.ru
 Вход
ppkBB3cker v.2 © 2008-2014 @ PPK
[ Time : 0.034s | 16 Queries | GZIP : Off ]

cron