img image001 image001 image001 image001 image001 image001 image001 image001 image001 image001 image001 image001 image001 image001 image001

Planets Sun Sun Sun
Статистика раздачи
Автор: Nickolas3434 | Размер: 9.94 ГБ | Добавлен: 26 авг 2015
Раздают: 897    Качают: 97
Скачать торрент
Скачать торрент
Описание торрента

СообщениеДобавлено: 26 авг 2015 


Информация о фильме
Оригинальное название: Батальонъ
Год выпуска: 2015
Жанр: Драма, военный, исторический
Выпущено: Россия, Корнер Ворк, Art Pictures Studio
Режиссер: Дмитрий Месхиев
В ролях: Мария Аронова, Мария Кожевникова, Ирина Рахманова, Марат Башаров, Янина Малинчик, Евгений Дятлов, Яков Шамшин, Алёна Кучкова, Валерия Шкирандо, Николай Аузин, Владимир Зайцев, Екатерина Вилкова, Сергей Тэсслер, Юлия Яновская (II), Дмитрий Шевченко, Артур Ваха
О фильме: Весна 1917-го года. Февральская революция изменила жизнь России и ход Великой войны. Государь уже отрёкся от престола. В окопах, где противостояние с немцами длится уже не один год, вовсю ведут свою пропаганду большевики. Они призывают к миру с неприятелем. Российское офицерство фактически ничего не может решить без одобрения так называемых солдатских комитетов. Армия находится на пороге окончательного разложения. По приказу Временного правительства для поднятия боевого духа создаётся женский «Батальон смерти» под командованием георгиевского кавалера Марии Бочкарёвой. Своей службой «Батальон смерти» подаёт пример храбрости, мужества и спокойствия, поднимает дух солдат и доказывает, что каждая из этих женщин-героев достойна звания воина русской армии.

Файл
Качество: BDRip (1080p)
Видео: MPEG-4 AVC, 8888 Кбит/с, 1920x800, 24 кадр/с
Аудио: AC3, 6 ch, 640 Кбит/с, DTS, 6 ch, 1510 Кбит/с
Размер: 9.94 ГБ
Продолжительность: 02:08:54
Язык: Русский
Озвучивание - Лицензия.
Сохранены оригинальные чаптеры как на Blu-Ray.
x264 [info]: frame I:1538 Avg QP:16.42 size:226328
x264 [info]: frame P:42431 Avg QP:18.35 size: 81499
x264 [info]: frame B:141658 Avg QP:20.14 size: 33769
x264 [info]: consecutive B-frames: 2.5% 3.7% 10.2% 21.0% 15.1% 41.3% 3.4% 0.8% 1.4% 0.5%
x264 [info]: mb I I16..4: 9.4% 78.7% 11.8%
x264 [info]: mb P I16..4: 5.7% 29.0% 3.1% P16..4: 24.8% 23.5% 5.7% 2.1% 0.2% skip: 6.0%
x264 [info]: mb B I16..4: 1.9% 5.6% 0.5% B16..8: 32.7% 16.1% 2.4% direct:11.3% skip:29.5% L0:41.0% L1:42.8% BI:16.2%
x264 [info]: 8x8 transform intra:74.3% inter:63.7%
x264 [info]: direct mvs spatial:98.8% temporal:1.2%
x264 [info]: coded y,uvDC,uvAC intra: 74.7% 82.8% 61.3% inter: 32.7% 44.0% 18.1%
x264 [info]: i16 v,h,dc,p: 32% 17% 10% 41%
x264 [info]: i8 v,h,dc,ddl,ddr,vr,hd,vl,hu: 10% 9% 12% 9% 12% 11% 12% 11% 14%
x264 [info]: i4 v,h,dc,ddl,ddr,vr,hd,vl,hu: 17% 12% 25% 5% 9% 8% 8% 7% 8%
x264 [info]: i8c dc,h,v,p: 40% 26% 20% 14%
x264 [info]: Weighted P-Frames: Y:9.0% UV:5.3%
x264 [info]: ref P L0: 53.5% 10.6% 20.0% 9.4% 5.8% 0.6% 0.0%
x264 [info]: ref B L0: 79.0% 15.9% 4.1% 1.0%
x264 [info]: ref B L1: 93.7% 6.3%
x264 [info]: kb/s:8884.70

Общее
Уникальный идентификатор : 230945817707498701045210243888990875814 (0xADBE8BED0518A41FA4A5F373323370A6)
Полное имя : D:ЗагрузкиBataljon.2015.x264.BDRip.(1080p).ExKinoRay.mkv
Формат : Matroska
Версия формата : Version 2
Размер файла : 9,94 Гбайт
Продолжительность : 2 ч. 8 м.
Общий поток : 11,0 Мбит/сек
Название фильма : Батальонъ.2015.Rip by: ollan
Дата кодирования : UTC 2015-08-24 05:52:09
Программа кодирования : mkvmerge v5.6.0 ('Kenya Kane') built on May 27 2012 16:44:04
Библиотека кодирования : libebml v1.2.3 + libmatroska v1.3.0
Видео
Идентификатор : 1
Формат : AVC
Формат/Информация : Advanced Video Codec
Профиль формата : High@L4.1
Параметр CABAC формата : Да
Параметр ReFrames формата : 5 кадров
Идентификатор кодека : V_MPEG4/ISO/AVC
Продолжительность : 2 ч. 8 м.
Битрейт : 8888 Кбит/сек
Ширина : 1920 пикселей
Высота : 800 пикселей
Соотношение сторон : 2,40:1
Режим частоты кадров : Постоянный
Частота кадров : 24,000 кадра/сек
Цветовое пространство : YUV
Субдискретизация насыщенности : 4:2:0
Битовая глубина : 8 бит
Тип развёртки : Прогрессивная
Бит/(Пиксели*Кадры) : 0.241
Размер потока : 7,80 Гбайт (79%)
Библиотека кодирования : x264 core 125 r2200 999b753
Настройки программы : cabac=1 / ref=5 / deblock=1:-3:-3 / analyse=0x3:0x133 / me=umh / subme=11 / psy=1 / psy_rd=1.00:0.10 / mixed_ref=1 / me_range=32 / chroma_me=1 / trellis=2 / 8x8dct=1 / cqm=0 / deadzone=21,11 / fast_pskip=0 / chroma_qp_offset=-3 / threads=12 / lookahead_threads=2 / sliced_threads=0 / nr=0 / decimate=0 / interlaced=0 / bluray_compat=0 / constrained_intra=0 / bframes=9 / b_pyramid=2 / b_adapt=2 / b_bias=0 / direct=3 / weightb=1 / open_gop=0 / weightp=2 / keyint=240 / keyint_min=23 / scenecut=40 / intra_refresh=0 / rc=2pass / mbtree=0 / bitrate=8888 / ratetol=1.0 / qcomp=0.60 / qpmin=0 / qpmax=69 / qpstep=4 / cplxblur=20.0 / qblur=0.5 / ip_ratio=1.40 / pb_ratio=1.30 / aq=1:1.00
Язык : Russian
Default : Да
Forced : Нет
Аудио #1
Идентификатор : 2
Формат : AC-3
Формат/Информация : Audio Coding 3
Расширение режима : CM (complete main)
Параметр Endianness формата : Big
Идентификатор кодека : A_AC3
Продолжительность : 2 ч. 8 м.
Вид битрейта : Постоянный
Битрейт : 640 Кбит/сек
Каналы : 6 каналов
Расположение каналов : Front: L C R, Side: L R, LFE
Частота : 48,0 КГц
Битовая глубина : 16 бит
Метод сжатия : С потерями
Размер потока : 590 Мбайт (6%)
Заголовок : Лицензия
Язык : Russian
Default : Да
Forced : Нет
Аудио #2
Идентификатор : 3
Формат : DTS
Формат/Информация : Digital Theater Systems
Режим : 16
Параметр Endianness формата : Big
Идентификатор кодека : A_DTS
Продолжительность : 2 ч. 8 м.
Вид битрейта : Постоянный
Битрейт : 1510 Кбит/сек
Каналы : 6 каналов
Расположение каналов : Front: L C R, Side: L R, LFE
Частота : 48,0 КГц
Битовая глубина : 24 бит
Метод сжатия : С потерями
Размер потока : 1,36 Гбайт (14%)
Заголовок : Лицензия
Язык : Russian
Default : Нет
Forced : Нет
Меню
00:00:00.000 : ru:Chapter 01
00:12:18.875 : ru:Chapter 02
00:21:40.041 : ru:Chapter 03
00:33:42.625 : ru:Chapter 04
00:41:00.250 : ru:Chapter 05
00:55:59.208 : ru:Chapter 06
01:01:24.000 : ru:Chapter 07
01:11:55.416 : ru:Chapter 08
01:23:56.291 : ru:Chapter 09
01:31:40.500 : ru:Chapter 10
01:40:55.166 : ru:Chapter 11
01:52:30.166 : ru:Chapter 12
02:08:54.416 : ru:Chapter 13





Релиз от: Rip by:



   Похожие торренты   Торрент   Размер 
В этой теме нет новых непрочитанных сообщений. Батальонъ (2015) BDRip 1080p | Лицензия

1221 | 99

11.84 ГБ

В этой теме нет новых непрочитанных сообщений. Батальонъ (2015) Blu-Ray 1080p | Лицензия

212 | 47

21.5 ГБ

В этой теме нет новых непрочитанных сообщений. Батальонъ (2015) BDRemux 1080p | Лицензия

335 | 31

19.96 ГБ

В этой теме нет новых непрочитанных сообщений. Батальонъ (2015) BDRip-AVC | Лицензия

1741 | 135

2.18 ГБ

В этой теме нет новых непрочитанных сообщений. Батальонъ (2015) BDRip | Лицензия

12674 | 590

2.18 ГБ

В этой теме нет новых непрочитанных сообщений. Батальонъ (2015) BDRip 1080p | 60 fps

287 | 86

23.69 ГБ

В этой теме нет новых непрочитанных сообщений. Батальонъ (2015) BDRip от HQCLUB | Лицензия

823 | 47

2.18 ГБ




Вы не можете начинать темы
Вы не можете отвечать на сообщения
Вы не можете редактировать свои сообщения
Вы не можете удалять свои сообщения
Вы не можете добавлять вложения

Перейти:  
Для Мосгорсуда, Роскомнадзора и рекламодателей: mosgorsud-torrent[собачка]yandex.ru
 Вход
ppkBB3cker v.2 © 2008-2014 @ PPK
[ Time : 0.041s | 14 Queries | GZIP : On ]

Торрент трекер RUTOR.IN, Не можете зайти на rutor.org? Какой новый адрес рутор? Какое зеркало рутор? Не работает rutor.org и зеркала? Тогда наш торрент специально для вас. Rutor.in неофициальное зеркало rutor. В случае если у Вас заблокирован rutor или вдруг Вы не можете на него зайти, то Вы без труда сможете скачать бесплатно и без рекламы последние новинки кино, игр, сериалов и прочего у нас, на Rutor.in. Не нужно использовать прокси, чтобы зайти на рутор, достаточно воспользоваться нашим ресурсом. Все новые фильмы, игры, сериалы, книги и музыка за 2013 и 2014 годы через торрент бесплатно. Скачивайте фильмы в хорошем качестве, игры для пк, xbox, playstation без регистрации. У нас вы найдете новые Зарубежные сериалы и Русские сериалы 2013, 2014, 2015 годов. Оставайтесь с нами, качайте любимые фильмы, игры, сериалы, книги и музыку.