img image001 image001 image001 image001 image001 image001 image001 image001 image001 image001 image001 image001 image001 image001 image001

Planets Sun Sun Sun
Статистика раздачи
Автор: Nickolas3434 | Размер: 4.36 ГБ | Добавлен: 27 авг 2015
Раздают: 378    Качают: 31
Скачать торрент
Скачать торрент
Описание торрента

СообщениеДобавлено: 27 авг 2015 


Информация о фильме
Название: Деревенский детектив
Год выхода: 1969
Жанр: Комедия, криминал, детектив, семейный
Режиссер: Иван Лукинский
В ролях: Михаил Жаров, Татьяна Пельтцер, Роман Ткачук, Лидия Смирнова, Ирина Зарубина, Анатолий Игнатьев, Николай Скоробогатов, Георгий Оболенский, Юрий Смирнов, Александра Харитонова и другие
О фильме:
В самой тихой деревне района ЧП — у завхоза клуба украли аккордеон. Улик преступники не оставили, свидетелей тоже. И заподозрить в воровстве некого — в деревне все свои. Завхоз махнул рукой и уже надумал новый аккордеон покупать. Но детектив Анискин всерьез собрался распутать это тёмное дело…
Страна: СССР
Студия: М. Горького
Продолжительность: 01:21:51
Перевод: Не требуется
Файл
Кодек: XviD
Качество: DVDRip
Видео: 640x272 (2.35:1), 25 fps, XviD build 73 ~1133 kbps avg, 0.26 bit/pixel
Звук: 48 kHz, MPEG Layer 3, 2 ch, ~128.00 kbps avg
Субтитры: Отсутствует
Семпл
General
Complete name : D:ТоррентМои рипыАниськинAniskin dvdrip ot shkiper1.Derevenskiy.detektiv.1968.DVDrip by shkiper.avi
Format : AVI
Format/Info : Audio Video Interleave
File size : 744 MiB
Duration : 1h 21mn
Overall bit rate : 1 272 Kbps
Writing application : VirtualDubMod 1.5.10.3 | www.virtualdub-fr.org || (build 2550/release)
Writing library : VirtualDubMod build 2550/release
Video
ID : 0
Format : MPEG-4 Visual
Format profile : Advanced Simple@L5
Format settings, BVOP : 1
Format settings, QPel : No
Format settings, GMC : No warppoints
Format settings, Matrix : Custom
Codec ID : XVID
Codec ID/Hint : XviD
Duration : 1h 21mn
Bit rate : 1 134 Kbps
Width : 640 pixels
Height : 272 pixels
Display aspect ratio : 2.35:1
Frame rate : 25.000 fps
Color space : YUV
Chroma subsampling : 4:2:0
Bit depth : 8 bits
Scan type : Progressive
Compression mode : Lossy
Bits/(Pixel*Frame) : 0.261
Stream size : 664 MiB (89%)
Writing library : XviD 73
Audio
ID : 1
Format : MPEG Audio
Format version : Version 1
Format profile : Layer 3
Mode : Joint stereo
Codec ID : 55
Codec ID/Hint : MP3
Duration : 1h 21mn
Bit rate mode : Constant
Bit rate : 128 Kbps
Channel(s) : 2 channels
Sampling rate : 48.0 KHz
Compression mode : Lossy
Stream size : 74.9 MiB (10%)
Alignment : Aligned on interleaves
Interleave, duration : 40 ms (1.00 video frame)
Interleave, preload duration : 504 ms
Writing library : LAME3.99r
Encoding settings : -m j -V 4 -q 2 -lowpass 17 -b 128

Информация о фильме
Название: Анискин и Фантомас
Год выхода: 1973
Жанр: Комедия, криминал, семейный
Режиссер: Михаил Жаров, Владимир Рапопорт
В ролях: Михаил Жаров, Татьяна Пельтцер, Лидия Смирнова, Роман Ткачук, Валентин Абрамов, Валерий Носик, Олег Балакин, Алексей Сафонов, Виктор Байков, Евгений Буренков
О фильме:
Телевизионный детектив по мотивам произведений В. Липатова об умном, внешне простоватом, добродушном сельском участковом Анискине, раскрывающем любые преступления. Злоумышленники в черных масках-чулках ограбили сельского кассира. Расследование ведет старший лейтенант Анискин.
Он полагает, что местные дети чересчур увлеклись игрой во французского злодея Фантомаса. Но кто задумал ограбление, кто подбил детей на это преступление в сибирской глубинке, где все друг друга знают?
Страна: СССР
Студия: М. Горького, Гостелерадио
Продолжительность: 01:03:43+01:04:47
Перевод: Не требуется
Файл
Кодек: XviD
Качество: DVDRip
Видео: 512x384 (1.33:1), 25 fps, XviD build 73 ~1492 kbps avg, 0.30 bit/pixel
Видео2: 512x384 (1.33:1), 25 fps, XviD build 73 ~1466 kbps avg, 0.30 bit/pixel
Звук: 48 kHz, MPEG Layer 3, 2 ch, ~128.00 kbps avg
Субтитры: Отсутствует
Семпл
General
Complete name : D:ТоррентМои рипыАниськинAniskin dvdrip ot shkiper2.1 Aniskin.i.Fantomas.1974 (1 iz 2 s.).DVDrip by shkiper.avi
Format : AVI
Format/Info : Audio Video Interleave
File size : 743 MiB
Duration : 1h 3mn
Overall bit rate : 1 630 Kbps
Writing application : VirtualDubMod 1.5.10.3 | www.virtualdub-fr.org || (build 2550/release)
Writing library : VirtualDubMod build 2550/release
Video
ID : 0
Format : MPEG-4 Visual
Format profile : Advanced Simple@L5
Format settings, BVOP : 1
Format settings, QPel : No
Format settings, GMC : No warppoints
Format settings, Matrix : Custom
Codec ID : XVID
Codec ID/Hint : XviD
Duration : 1h 3mn
Bit rate : 1 492 Kbps
Width : 512 pixels
Height : 384 pixels
Display aspect ratio : 4:3
Frame rate : 25.000 fps
Color space : YUV
Chroma subsampling : 4:2:0
Bit depth : 8 bits
Scan type : Progressive
Compression mode : Lossy
Bits/(Pixel*Frame) : 0.304
Stream size : 680 MiB (92%)
Writing library : XviD 73
Audio
ID : 1
Format : MPEG Audio
Format version : Version 1
Format profile : Layer 3
Mode : Joint stereo
Mode extension : MS Stereo
Codec ID : 55
Codec ID/Hint : MP3
Duration : 1h 3mn
Bit rate mode : Constant
Bit rate : 128 Kbps
Channel(s) : 2 channels
Sampling rate : 48.0 KHz
Compression mode : Lossy
Stream size : 58.3 MiB (8%)
Alignment : Aligned on interleaves
Interleave, duration : 40 ms (1.00 video frame)
Interleave, preload duration : 504 ms
Writing library : LAME3.99r
Encoding settings : -m j -V 4 -q 2 -lowpass 17 -b 128
______________________
General
Complete name : D:ТоррентМои рипыАниськинAniskin dvdrip ot shkiper2.2 Aniskin.i.Fantomas.1974.2 iz 2 s. DVDrip by shkiper.avi
Format : AVI
Format/Info : Audio Video Interleave
File size : 744 MiB
Duration : 1h 4mn
Overall bit rate : 1 605 Kbps
Writing application : VirtualDubMod 1.5.10.3 | www.virtualdub-fr.org || (build 2550/release)
Writing library : VirtualDubMod build 2550/release
Video
ID : 0
Format : MPEG-4 Visual
Format profile : Advanced Simple@L5
Format settings, BVOP : 1
Format settings, QPel : No
Format settings, GMC : No warppoints
Format settings, Matrix : Custom
Codec ID : XVID
Codec ID/Hint : XviD
Duration : 1h 4mn
Bit rate : 1 467 Kbps
Width : 512 pixels
Height : 384 pixels
Display aspect ratio : 4:3
Frame rate : 25.000 fps
Color space : YUV
Chroma subsampling : 4:2:0
Bit depth : 8 bits
Scan type : Progressive
Compression mode : Lossy
Bits/(Pixel*Frame) : 0.298
Stream size : 680 MiB (91%)
Writing library : XviD 73
Audio
ID : 1
Format : MPEG Audio
Format version : Version 1
Format profile : Layer 3
Mode : Joint stereo
Codec ID : 55
Codec ID/Hint : MP3
Duration : 1h 4mn
Bit rate mode : Constant
Bit rate : 128 Kbps
Channel(s) : 2 channels
Sampling rate : 48.0 KHz
Compression mode : Lossy
Stream size : 59.3 MiB (8%)
Alignment : Aligned on interleaves
Interleave, duration : 40 ms (1.00 video frame)
Interleave, preload duration : 504 ms
Writing library : LAME3.99r
Encoding settings : -m j -V 4 -q 2 -lowpass 17 -b 128

Информация о фильме
Название: И снова Анискин
Год выхода: 1977
Жанр: Криминал, детектив
Режиссер: Виталий Иванов, Михаил Жаров
В ролях: Михаил Жаров, Татьяна Пельтцер, Никита Подгорный, Лидия Смирнова, Роман Ткачук, Виктор Борцов, Борис Щербаков, Валерий Носик, Юрий Пузырев, Александр Белявский
О фильме:
Из школьного музея украли самые ценные экспонаты, к великому сожалению его директора и реставратора, художника Бережкова, приехавшего вместе с женой из города. О преступнике известно, что это мужчина высокого роста и с большим размером обуви.
Среди подозрительных лиц имеются грубые и несознательные шабашники, строящие силосную башню, отставший от парохода матрос-пьяница, местный алкоголик, своего рода последний из могикан, Верка-Косая и некий Сидоров. За всеми шпионит помешавшийся на детективах Лютиков. Кто же обокрал музей?
Страна: СССР
Студия: М. Горького
Продолжительность: 01:05:26+01:04:47+01:05:32
Перевод: Не требуется
Файл
Кодек: XviD
Качество: DVDRip
Видео: 512x384 (1.33:1), 25 fps, XviD build 73 ~1450 kbps avg, 0.29 bit/pixel
Видео 2:512x384 (1.33:1), 25 fps, XviD build 73 ~1466 kbps avg, 0.30 bit/pixel
Видео 3:512x384 (1.33:1), 25 fps, XviD build 73 ~1447 kbps avg, 0.29 bit/pixel
Звук: 48 kHz, MPEG Layer 3, 2 ch, ~128.00 kbps avg
Субтитры: Отсутствует
Семпл
General
Complete name : D:ТоррентМои рипыАниськинAniskin dvdrip ot shkiper3.1 I.snova.Aniskin.1978.1 iz 3 s. DVDrip by shkiper.avi
Format : AVI
Format/Info : Audio Video Interleave
File size : 743 MiB
Duration : 1h 5mn
Overall bit rate : 1 588 Kbps
Writing application : VirtualDubMod 1.5.10.3 | www.virtualdub-fr.org || (build 2550/release)
Writing library : VirtualDubMod build 2550/release
Video
ID : 0
Format : MPEG-4 Visual
Format profile : Advanced Simple@L5
Format settings, BVOP : 1
Format settings, QPel : No
Format settings, GMC : No warppoints
Format settings, Matrix : Custom
Codec ID : XVID
Codec ID/Hint : XviD
Duration : 1h 5mn
Bit rate : 1 450 Kbps
Width : 512 pixels
Height : 384 pixels
Display aspect ratio : 4:3
Frame rate : 25.000 fps
Color space : YUV
Chroma subsampling : 4:2:0
Bit depth : 8 bits
Scan type : Progressive
Compression mode : Lossy
Bits/(Pixel*Frame) : 0.295
Stream size : 679 MiB (91%)
Writing library : XviD 73
Audio
ID : 1
Format : MPEG Audio
Format version : Version 1
Format profile : Layer 3
Mode : Joint stereo
Mode extension : MS Stereo
Codec ID : 55
Codec ID/Hint : MP3
Duration : 1h 5mn
Bit rate mode : Constant
Bit rate : 128 Kbps
Channel(s) : 2 channels
Sampling rate : 48.0 KHz
Compression mode : Lossy
Stream size : 59.9 MiB (8%)
Alignment : Aligned on interleaves
Interleave, duration : 40 ms (1.00 video frame)
Interleave, preload duration : 504 ms
Writing library : LAME3.99r
Encoding settings : -m j -V 4 -q 2 -lowpass 17 -b 128
___________________
General
Complete name : D:ТоррентМои рипыАниськинAniskin dvdrip ot shkiper3.2 I.snova.Aniskin.1978.2 iz 3 s. DVDrip by shkiper.avi
Format : AVI
Format/Info : Audio Video Interleave
File size : 744 MiB
Duration : 1h 4mn
Overall bit rate : 1 605 Kbps
Writing application : VirtualDubMod 1.5.10.3 | www.virtualdub-fr.org || (build 2550/release)
Writing library : VirtualDubMod build 2550/release
Video
ID : 0
Format : MPEG-4 Visual
Format profile : Advanced Simple@L5
Format settings, BVOP : 1
Format settings, QPel : No
Format settings, GMC : No warppoints
Format settings, Matrix : Custom
Codec ID : XVID
Codec ID/Hint : XviD
Duration : 1h 4mn
Bit rate : 1 467 Kbps
Width : 512 pixels
Height : 384 pixels
Display aspect ratio : 4:3
Frame rate : 25.000 fps
Color space : YUV
Chroma subsampling : 4:2:0
Bit depth : 8 bits
Scan type : Progressive
Compression mode : Lossy
Bits/(Pixel*Frame) : 0.298
Stream size : 680 MiB (91%)
Writing library : XviD 73
Audio
ID : 1
Format : MPEG Audio
Format version : Version 1
Format profile : Layer 3
Mode : Joint stereo
Mode extension : MS Stereo
Codec ID : 55
Codec ID/Hint : MP3
Duration : 1h 4mn
Bit rate mode : Constant
Bit rate : 128 Kbps
Channel(s) : 2 channels
Sampling rate : 48.0 KHz
Compression mode : Lossy
Stream size : 59.3 MiB (8%)
Alignment : Aligned on interleaves
Interleave, duration : 40 ms (1.00 video frame)
Interleave, preload duration : 504 ms
Writing library : LAME3.99r
Encoding settings : -m j -V 4 -q 2 -lowpass 17 -b 128
____________________
General
Complete name : D:ТоррентМои рипыАниськинAniskin dvdrip ot shkiper3.3 I.snova.Aniskin.1978.3 iz 3 s. DVDrip by shkiper.avi
Format : AVI
Format/Info : Audio Video Interleave
File size : 743 MiB
Duration : 1h 5mn
Overall bit rate : 1 585 Kbps
Writing application : VirtualDubMod 1.5.10.3 | www.virtualdub-fr.org || (build 2550/release)
Writing library : VirtualDubMod build 2550/release
Video
ID : 0
Format : MPEG-4 Visual
Format profile : Advanced Simple@L5
Format settings, BVOP : 1
Format settings, QPel : No
Format settings, GMC : No warppoints
Format settings, Matrix : Custom
Codec ID : XVID
Codec ID/Hint : XviD
Duration : 1h 5mn
Bit rate : 1 447 Kbps
Width : 512 pixels
Height : 384 pixels
Display aspect ratio : 4:3
Frame rate : 25.000 fps
Color space : YUV
Chroma subsampling : 4:2:0
Bit depth : 8 bits
Scan type : Progressive
Compression mode : Lossy
Bits/(Pixel*Frame) : 0.294
Stream size : 679 MiB (91%)
Writing library : XviD 73
Audio
ID : 1
Format : MPEG Audio
Format version : Version 1
Format profile : Layer 3
Mode : Joint stereo
Mode extension : MS Stereo
Codec ID : 55
Codec ID/Hint : MP3
Duration : 1h 5mn
Bit rate mode : Constant
Bit rate : 128 Kbps
Channel(s) : 2 channels
Sampling rate : 48.0 KHz
Compression mode : Lossy
Stream size : 60.0 MiB (8%)
Alignment : Aligned on interleaves
Interleave, duration : 40 ms (1.00 video frame)
Interleave, preload duration : 504 ms
Writing library : LAME3.99r
Encoding settings : -m j -V 4 -q 2 -lowpass 17 -b 128

Релиз от:



   Похожие торренты   Торрент   Размер 
В этой теме нет новых непрочитанных сообщений. Анискин. Трилогия (1969-1977) 2xDVD9+DVD5

30 | 20

17.7 ГБ

В этой теме нет новых непрочитанных сообщений. Распутное детство / Maladolescenza (1977) DVDRip от Шкипер | P

214 | 76

1.46 ГБ

В этой теме нет новых непрочитанных сообщений. Обреченный на одиночество / Kenka karate kyokushinken (1977) DVDRip от Шкипер | D

8 | 1

744.59 МБ

В этой теме нет новых непрочитанных сообщений. Все свои:Трилогия / Sami swoi: Trilogy (1967-1977) DVDRip-AVC | L1

88 | 66

4.98 ГБ

В этой теме нет новых непрочитанных сообщений. Анискин и Фантомас (1973) DVDRip

151 | 25

2.05 ГБ

В этой теме нет новых непрочитанных сообщений. Анискин и Фантомас (1973) DVDRip-AVC

330 | 25

2.6 ГБ

В этой теме нет новых непрочитанных сообщений. И снова Анискин (1978) DVDRip

41 | 16

2.91 ГБ




Вы не можете начинать темы
Вы не можете отвечать на сообщения
Вы не можете редактировать свои сообщения
Вы не можете удалять свои сообщения
Вы не можете добавлять вложения

Перейти:  
Для Мосгорсуда, Роскомнадзора и рекламодателей: mosgorsud-torrent[собачка]yandex.ru
 Вход
ppkBB3cker v.2 © 2008-2014 @ PPK
[ Time : 0.515s | 15 Queries | GZIP : Off ]

Торрент трекер RUTOR.IN, Не можете зайти на rutor.org? Какой новый адрес рутор? Какое зеркало рутор? Не работает rutor.org и зеркала? Тогда наш торрент специально для вас. Rutor.in неофициальное зеркало rutor. В случае если у Вас заблокирован rutor или вдруг Вы не можете на него зайти, то Вы без труда сможете скачать бесплатно и без рекламы последние новинки кино, игр, сериалов и прочего у нас, на Rutor.in. Не нужно использовать прокси, чтобы зайти на рутор, достаточно воспользоваться нашим ресурсом. Все новые фильмы, игры, сериалы, книги и музыка за 2013 и 2014 годы через торрент бесплатно. Скачивайте фильмы в хорошем качестве, игры для пк, xbox, playstation без регистрации. У нас вы найдете новые Зарубежные сериалы и Русские сериалы 2013, 2014, 2015 годов. Оставайтесь с нами, качайте любимые фильмы, игры, сериалы, книги и музыку.
cron