img image001 image001 image001 image001 image001 image001 image001 image001 image001 image001 image001 image001 image001 image001 image001

Planets Sun Sun Sun
Статистика раздачи
Автор: Nickolas3434 | Размер: 749.65 МБ | Добавлен: 01 сен 2015
Раздают: 194    Качают: 15
Скачать торрент
Скачать торрент
Описание торрента

СообщениеДобавлено: 01 сен 2015 


Информация о фильме
Название: Неадекватные люди
Год выхода: 2010
Жанр: Мелодрама, комедия
Режиссер: Роман Каримов
В ролях: Илья Любимов, Ингрид Олеринская, Евгений Цыганов, Юлия Такшина, Артем Душкин, Полина Иосилевич, Марина Зайцева, Анастасия Федоркова, Назар Ас-Самаррай, Анна Колобаева
О фильме:
Тихий и воспитанный Виталик пытается начать жизнь с нуля в новом городе. Но странным образом ему на пути попадаются одни сумасшедшие. Его соседкой по лестничной площадке оказывается взбалмошная Кристина, стремящаяся переделать его из задрота в нормального мужика, на новой работе атакует похотливая начальница и даже психолог, помогающий ему совладать со всем этим — и тот оказывается садо-мазохистом. Виталик кажется единственным адекватным человеком здесь. Но так ли это на самом деле?

Страна: Россия
Студия: Cinema Prime Film
Продолжительность: 01:45:48
Перевод: Не требуется
Файл
Кодек: XviD
Качество: HDRip
Видео: 624x352 (1.77:1), 23.976 fps, XviD build 73 ~853 kbps avg, 0.16 bit/pixel
Звук: 48 kHz, MPEG Layer 3, 2 ch, ~128.00 kbps avg
Субтитры: Отсутствует
Семпл
General
Complete name : D:Для изготовления рипаNeadekvatnye.Lyudi.2010.HDRip.by shkiper.avi
Format : AVI
Format/Info : Audio Video Interleave
File size : 750 MiB
Duration : 1h 45mn
Overall bit rate : 991 Kbps
Writing application : VirtualDubMod 1.5.10.3 | www.virtualdub-fr.org || (build 2550/release)
Writing library : VirtualDubMod build 2550/release
Video
ID : 0
Format : MPEG-4 Visual
Format profile : Advanced Simple@L5
Format settings, BVOP : 1
Format settings, QPel : No
Format settings, GMC : No warppoints
Format settings, Matrix : Custom
Codec ID : XVID
Codec ID/Hint : XviD
Duration : 1h 45mn
Bit rate : 853 Kbps
Width : 624 pixels
Height : 352 pixels
Display aspect ratio : 16:9
Frame rate : 23.976 fps
Color space : YUV
Chroma subsampling : 4:2:0
Bit depth : 8 bits
Scan type : Progressive
Compression mode : Lossy
Bits/(Pixel*Frame) : 0.162
Stream size : 646 MiB (86%)
Writing library : XviD 73
Audio
ID : 1
Format : MPEG Audio
Format version : Version 1
Format profile : Layer 3
Mode : Joint stereo
Mode extension : MS Stereo
Codec ID : 55
Codec ID/Hint : MP3
Duration : 1h 45mn
Bit rate mode : Constant
Bit rate : 128 Kbps
Channel(s) : 2 channels
Sampling rate : 48.0 KHz
Compression mode : Lossy
Stream size : 96.9 MiB (13%)
Alignment : Aligned on interleaves
Interleave, duration : 42 ms (1.00 video frame)
Interleave, preload duration : 504 ms
Writing library : LAME3.99r
Encoding settings : -m j -V 4 -q 2 -lowpass 17 -b 128

Релиз от:



   Похожие торренты   Торрент   Размер 
В этой теме нет новых непрочитанных сообщений. Неадекватные люди (2010) HDRip от Scarabey

59 | 10

742.61 МБ

В этой теме нет новых непрочитанных сообщений. Неадекватные люди (2010) HDRip от Scarabey

1198 | 44

1.45 ГБ

В этой теме нет новых непрочитанных сообщений. Неадекватные люди (2010) BDRip | КПК

112 | 7

411.54 МБ

В этой теме нет новых непрочитанных сообщений. Неадекватные люди (2010) BDRip от HQ-ViDEO

174 | 5

1.45 ГБ

В этой теме нет новых непрочитанных сообщений. Неадекватные люди (2010) BDRip от HQCLUB

144 | 11

2 ГБ

В этой теме нет новых непрочитанных сообщений. Неадекватные люди (2010) DVD5 vadi

0 | 3

4.35 ГБ

В этой теме нет новых непрочитанных сообщений. Неадекватные люди (2010) BDRip-AVC от HQ-ViDEO

230 | 17

1.46 ГБ




Вы не можете начинать темы
Вы не можете отвечать на сообщения
Вы не можете редактировать свои сообщения
Вы не можете удалять свои сообщения
Вы не можете добавлять вложения

Перейти:  
Для Мосгорсуда, Роскомнадзора и рекламодателей: mosgorsud-torrent[собачка]yandex.ru
 Вход
ppkBB3cker v.2 © 2008-2014 @ PPK
[ Time : 1.477s | 14 Queries | GZIP : On ]

Торрент трекер RUTOR.IN, Не можете зайти на rutor.org? Какой новый адрес рутор? Какое зеркало рутор? Не работает rutor.org и зеркала? Тогда наш торрент специально для вас. Rutor.in неофициальное зеркало rutor. В случае если у Вас заблокирован rutor или вдруг Вы не можете на него зайти, то Вы без труда сможете скачать бесплатно и без рекламы последние новинки кино, игр, сериалов и прочего у нас, на Rutor.in. Не нужно использовать прокси, чтобы зайти на рутор, достаточно воспользоваться нашим ресурсом. Все новые фильмы, игры, сериалы, книги и музыка за 2013 и 2014 годы через торрент бесплатно. Скачивайте фильмы в хорошем качестве, игры для пк, xbox, playstation без регистрации. У нас вы найдете новые Зарубежные сериалы и Русские сериалы 2013, 2014, 2015 годов. Оставайтесь с нами, качайте любимые фильмы, игры, сериалы, книги и музыку.