img image001 image001 image001 image001 image001 image001 image001 image001 image001 image001 image001 image001 image001 image001 image001

Planets Sun Sun Sun
Статистика раздачи
Автор: Nickolas3434 | Размер: 1.09 ГБ | Добавлен: 01 сен 2015
Раздают: 18    Качают: 9
Скачать торрент
Скачать торрент
Описание торрента

СообщениеДобавлено: 01 сен 2015 

Страна: СССР
Производство: Межрабпомфильм
Жанр: мелодрама, комедия
Год выпуска: 1936
Продолжительность: 01:02:24
Перевод: Не требуется
Cубтитры: нет
Оригинальная аудиодорожка: русский
Режиссер: Игорь Савченко
В ролях:
Галина Пашкова, Евгений Самойлов, Пётр Савин, Иван Лобызовский, Константин Нассонов, Сергей Никонов, Валентина Ивашёва, Николай Вильдгрубе...
Полный список актёров
Описание:
На комбинат детских игрушек, где работает ударница производства Ирина, приезжает новый инструктор физкультуры Гриша (Евгений Самойлов). Обнаружив у девушки выдающиеся способности спортсменки, он начинает готовить ее к всесоюзным соревнованиям в Москве. Их дружба переходит в любовь и очень скоро завершается браком. Сообщение Ирины о том, что у них будет ребенок, муж встречает бурей негодования: вся их совместная работа оказывается бессмысленной. Ирина уходит от мужа и решает воспитывать ребенка одна. Коллектив комбината с сочувствием относится к молодой матери, помогает ей перенести душевную травму и всячески способствует ей в занятиях спортом. На всесоюзных соревнованиях в Москве Ирина занимает первое место.
[hrleft][img]http://s017.radikal.ru/i432/1508/2a/352c8b271718.png[/imgleft]



Источник: DVD5 R5
Качество видео: DVDRip
Формат видео: AVI
Видео: 688x512 (4:3), 25 fps, XviD ~ 2291 kbps avg, 0.260 bit/pixel
Аудио: 48 kHz, Dolby Digital AC3 2.0, 192 kbps
Раздача от:
Общее
Полное имя : Sluchaynaya.vstrecha.1936.DVDRip_[New-team]_by_AVP_Studio.avi
Формат : AVI
Формат/Информация : Audio Video Interleave
Размер файла : 1,09 Гбайт
Продолжительность : 1 ч. 2 м.
Общий поток : 2493 Кбит/сек
Программа кодирования : VirtualDubMod 1.5.10.3 | www.virtualdub-fr.org || (build 2550/release)
Библиотека кодирования : VirtualDubMod build 2550/release
Видео
Идентификатор : 0
Формат : MPEG-4 Visual
Профиль формата : Advanced Simple@L5
Параметр BVOP формата : 1
Параметр QPel формата : Нет
Параметр GMC формата : Без точки перехода
Параметр матрицы формата : Выборочная
Идентификатор кодека : XVID
Идентификатор кодека/Подсказка : XviD
Продолжительность : 1 ч. 2 м.
Битрейт : 2291 Кбит/сек
Ширина : 688 пикселей
Высота : 512 пикселей
Соотношение сторон : 4:3
Частота кадров : 25,000 кадров/сек
Цветовое пространство : YUV
Субдискретизация насыщенности : 4:2:0
Битовая глубина : 8 бит
Тип развёртки : Прогрессивная
Метод сжатия : С потерями
Бит/(Пиксели*Кадры) : 0.260
Размер потока : 1023 Мбайт (92%)
Библиотека кодирования : XviD 73
Аудио
Идентификатор : 1
Формат : AC-3
Формат/Информация : Audio Coding 3
Расширение режима : CM (complete main)
Параметр Endianness формата : Big
Идентификатор кодека : 2000
Продолжительность : 1 ч. 2 м.
Вид битрейта : Постоянный
Битрейт : 192 Кбит/сек
Каналы : 2 канала
Расположение каналов : Front: L R
Частота : 48,0 КГц
Метод сжатия : С потерями
Размер потока : 85,7 Мбайт (8%)
Выравнивание : Разделение по промежуткам
Продолжительность промежутка : 40 мс. (1,00 видеокадр)
Время предзагрузки промежутка : 500 мс





   Похожие торренты   Торрент   Размер 
В этой теме нет новых непрочитанных сообщений. Случайная встреча (1936) DVDRip-AVC от New-Team

15 | 7

744.38 МБ

В этой теме нет новых непрочитанных сообщений. Случайная встреча (1936) DVDRip от New-Team

5 | 5

742.43 МБ

В этой теме нет новых непрочитанных сообщений. Федька (1936) DVDRip-AVC от New-Team

56 | 16

744.33 МБ

В этой теме нет новых непрочитанных сообщений. Федька (1936) DVDRip от New-Team

35 | 7

742.87 МБ

В этой теме нет новых непрочитанных сообщений. Мы из Кронштадта (1936) DVDRip-AVC от New-Team

68 | 10

1.46 ГБ

В этой теме нет новых непрочитанных сообщений. Мы из Кронштадта (1936) DVDRip от New-Team

20 | 6

750.11 МБ

В этой теме нет новых непрочитанных сообщений. Мы из Кронштадта (1936) DVDRip от New-Team

46 | 21

1.46 ГБ




Вы не можете начинать темы
Вы не можете отвечать на сообщения
Вы не можете редактировать свои сообщения
Вы не можете удалять свои сообщения
Вы не можете добавлять вложения

Перейти:  
Для Мосгорсуда, Роскомнадзора и рекламодателей: mosgorsud-torrent[собачка]yandex.ru
 Вход
ppkBB3cker v.2 © 2008-2014 @ PPK
[ Time : 0.042s | 17 Queries | GZIP : Off ]

Торрент трекер RUTOR.IN, Не можете зайти на rutor.org? Какой новый адрес рутор? Какое зеркало рутор? Не работает rutor.org и зеркала? Тогда наш торрент специально для вас. Rutor.in неофициальное зеркало rutor. В случае если у Вас заблокирован rutor или вдруг Вы не можете на него зайти, то Вы без труда сможете скачать бесплатно и без рекламы последние новинки кино, игр, сериалов и прочего у нас, на Rutor.in. Не нужно использовать прокси, чтобы зайти на рутор, достаточно воспользоваться нашим ресурсом. Все новые фильмы, игры, сериалы, книги и музыка за 2013 и 2014 годы через торрент бесплатно. Скачивайте фильмы в хорошем качестве, игры для пк, xbox, playstation без регистрации. У нас вы найдете новые Зарубежные сериалы и Русские сериалы 2013, 2014, 2015 годов. Оставайтесь с нами, качайте любимые фильмы, игры, сериалы, книги и музыку.