img image001 image001 image001 image001 image001 image001 image001 image001 image001 image001 image001 image001 image001 image001 image001

Planets Sun Sun Sun
Статистика раздачи
Автор: Nickolas3434 | Размер: 744.98 МБ | Добавлен: 01 сен 2015
Раздают: 425    Качают: 69
Скачать торрент
Скачать торрент
Описание торрента

СообщениеДобавлено: 01 сен 2015 


Информация о фильме
Название: Однажды преступив черту
Год выхода: 2015
Жанр: Мелодрама, детектив
Режиссер: Максим Демченко
В ролях: Светлана Тимофеева-Летуновская, Михаил Хмуров, Юлия Кудояр, Александр Гурбан, Анжела Кораблёва, Александр Зеленко, Александр Островский, Сергей Пукита, Татьяна Кулеш, Александр Одинец, Александр Тарасов, Виталий Новиков, Виктор Молчан, Александр Бранкевич, Сергей Прокопич, Дмитрий Давидович
О фильме:
Людмила Колесникова работает горничной в гостинице. Она давно разведена и живет заботами своего сына Павла, в котором души не чает. Павел занимается спортом, хорошо учится и собирается поступать в медицинский. Так бы и жила эта маленькая небогатая, но очень дружная семья своими тихими радостями, если бы не пришла беда. Однажды на мать и сына нападают хулиганы и жестоко их избивают. Придя в себя в больнице, Людмила узнает, что Павел в коме. Дело ведет талантливый следователь Олег Ершов. Но обезумевшей от горя матери кажется, что полицейские работают недостаточно хорошо и быстро. Людмила решает сама выследить хулиганов. И на отложенные для отпуска деньги покупает пистолет.

Страна: Россия
Студия: Медиапрофсоюз
Продолжительность: 01:29:04
Перевод: Не требуется
Файл
Кодек: XviD
Качество: HDTVRip
Видео: 624x352 (1.77:1), 25 fps, XviD build 73 ~1031 kbps avg, 0.19 bit/pixel
Звук: 48 kHz, MPEG Layer 3, 2 ch, ~128.00 kbps avg
Субтитры: Отсутствует
Семпл
General
Complete name : D:Для изготовления рипаOdnazhdy.prestupiv.chertu.2015.HDTVRip.shkiper.avi
Format : AVI
Format/Info : Audio Video Interleave
File size : 745 MiB
Duration : 1h 29mn
Overall bit rate : 1 169 Kbps
Writing application : VirtualDubMod 1.5.10.3 | www.virtualdub-fr.org || (build 2550/release)
Writing library : VirtualDubMod build 2550/release
Video
ID : 0
Format : MPEG-4 Visual
Format profile : Advanced Simple@L5
Format settings, BVOP : 1
Format settings, QPel : No
Format settings, GMC : No warppoints
Format settings, Matrix : Custom
Codec ID : XVID
Codec ID/Hint : XviD
Duration : 1h 29mn
Bit rate : 1 032 Kbps
Width : 624 pixels
Height : 352 pixels
Display aspect ratio : 16:9
Frame rate : 25.000 fps
Color space : YUV
Chroma subsampling : 4:2:0
Bit depth : 8 bits
Scan type : Progressive
Compression mode : Lossy
Bits/(Pixel*Frame) : 0.188
Stream size : 657 MiB (88%)
Writing library : XviD 73
Audio
ID : 1
Format : MPEG Audio
Format version : Version 1
Format profile : Layer 3
Mode : Joint stereo
Mode extension : MS Stereo
Codec ID : 55
Codec ID/Hint : MP3
Duration : 1h 29mn
Bit rate mode : Constant
Bit rate : 128 Kbps
Channel(s) : 2 channels
Sampling rate : 48.0 KHz
Compression mode : Lossy
Stream size : 81.5 MiB (11%)
Alignment : Aligned on interleaves
Interleave, duration : 40 ms (1.00 video frame)
Interleave, preload duration : 504 ms
Writing library : LAME3.99r
Encoding settings : -m j -V 4 -q 2 -lowpass 17 -b 128

Релиз от:



   Похожие торренты   Торрент   Размер 
В этой теме нет новых непрочитанных сообщений. Однажды преступив черту (2015) HDTVRip-AVC

190 | 31

1.6 ГБ

В этой теме нет новых непрочитанных сообщений. Однажды преступив черту (2015) HDTVRip от Files-x

3127 | 330

1.37 ГБ

В этой теме нет новых непрочитанных сообщений. Однажды преступив черту (2015) HDTVRip-AVC от Files-x

402 | 57

1.37 ГБ

В этой теме нет новых непрочитанных сообщений. Однажды преступив черту (2015) HDTVRip 720p от MediaClub

616 | 83

2.43 ГБ

В этой теме нет новых непрочитанных сообщений. Однажды преступив черту (2015) HDTV 1080i

149 | 54

5.28 ГБ

В этой теме нет новых непрочитанных сообщений. Однажды преступив закон (Убийство в Монте-Карло) / Once Upon a Crime... (1992) HDTVRip от HQ-ViDEO

32 | 8

1.46 ГБ

В этой теме нет новых непрочитанных сообщений. Однажды преступив закон / Once Upon a Crime... (1992) BDRip от Koenig

62 | 14

1.45 ГБ




Вы не можете начинать темы
Вы не можете отвечать на сообщения
Вы не можете редактировать свои сообщения
Вы не можете удалять свои сообщения
Вы не можете добавлять вложения

Перейти:  
Для Мосгорсуда, Роскомнадзора и рекламодателей: mosgorsud-torrent[собачка]yandex.ru
 Вход
ppkBB3cker v.2 © 2008-2014 @ PPK
[ Time : 0.047s | 15 Queries | GZIP : Off ]

cron