img image001 image001 image001 image001 image001 image001 image001 image001 image001 image001 image001 image001 image001 image001 image001

Planets Sun Sun Sun
Статистика раздачи
Автор: Nickolas3434 | Размер: 1.09 ГБ | Добавлен: 02 сен 2015
Раздают: 8    Качают: 16
Скачать торрент
Скачать торрент
Описание торрента

СообщениеДобавлено: 02 сен 2015 

Страна: СССР
Производство: Киностудия им. Горького
Жанр: военный
Год выпуска: 1949
Продолжительность: 01:23:27
Перевод: Не требуется
Cубтитры: нет
Оригинальная аудиодорожка: русский
Режиссер: Александр Файнциммер, Владимир Легошин
В ролях:
Наталья Защипина, Леня Котов, Павел Кадочников, Вера Марецкая, Всеволод Санаев, Лидия Смирнова, Геннадий Юдин, Фаина Раневская, Владимир Соловьёв, Михаил Астангов, Виктор Станицын, Александр Хохлов, В. Рэнин, Юдифь Глизер...
Полный список актёров
Описание:
По пьесе С. Михалкова "Я хочу домой".
Советские представители подполковник Добрынин и майор Сорокин разыскивают на территории Западной Германии оказавшийся под присмотром английской разведки сиротский приют с советскими детьми, насильственно увезёнными оккупантами за границу в годы Отечественной войны, и добиваются возвращения детей на Родину.





Источник: DVD5 R5
Качество видео: DVDRip
Формат видео: AVI
Видео: 688x512 (4:3), 25 fps, XviD ~ 1662 kbps avg, 0.189 bit/pixel
Аудио: 48 kHz, Dolby Digital AC3 2.0, 192 kbps
Раздача от:
Общее
Полное имя : U.nih.est.Rodina.1949.DVDRip_[New-team]_by_AVP_Studio.avi
Формат : AVI
Формат/Информация : Audio Video Interleave
Размер файла : 1,09 Гбайт
Продолжительность : 1 ч. 23 м.
Общий поток : 1863 Кбит/сек
Программа кодирования : VirtualDubMod 1.5.10.3 | www.virtualdub-fr.org || (build 2550/release)
Библиотека кодирования : VirtualDubMod build 2550/release
Видео
Идентификатор : 0
Формат : MPEG-4 Visual
Профиль формата : Advanced Simple@L5
Параметр BVOP формата : 1
Параметр QPel формата : Нет
Параметр GMC формата : Без точки перехода
Параметр матрицы формата : Выборочная
Идентификатор кодека : XVID
Идентификатор кодека/Подсказка : XviD
Продолжительность : 1 ч. 23 м.
Битрейт : 1662 Кбит/сек
Ширина : 688 пикселей
Высота : 512 пикселей
Соотношение сторон : 4:3
Частота кадров : 25,000 кадров/сек
Цветовое пространство : YUV
Субдискретизация насыщенности : 4:2:0
Битовая глубина : 8 бит
Тип развёртки : Прогрессивная
Метод сжатия : С потерями
Бит/(Пиксели*Кадры) : 0.189
Размер потока : 992 Мбайт (89%)
Библиотека кодирования : XviD 73
Аудио
Идентификатор : 1
Формат : AC-3
Формат/Информация : Audio Coding 3
Расширение режима : CM (complete main)
Параметр Endianness формата : Big
Идентификатор кодека : 2000
Продолжительность : 1 ч. 23 м.
Вид битрейта : Постоянный
Битрейт : 192 Кбит/сек
Каналы : 2 канала
Расположение каналов : Front: L R
Частота : 48,0 КГц
Метод сжатия : С потерями
Размер потока : 115 Мбайт (10%)
Выравнивание : Разделение по промежуткам
Продолжительность промежутка : 40 мс. (1,00 видеокадр)
Время предзагрузки промежутка : 500 мс





   Похожие торренты   Торрент   Размер 
В этой теме нет новых непрочитанных сообщений. У них есть Родина (1949) DVDRip-AVC от New-Team

46 | 23

1.09 ГБ

В этой теме нет новых непрочитанных сообщений. У них есть Родина (1949) DVDRip от New-Team

25 | 7

743.25 МБ

В этой теме нет новых непрочитанных сообщений. Встреча на Эльбе (1949) DVDRip-AVC от New-Team

26 | 6

1.46 ГБ

В этой теме нет новых непрочитанных сообщений. Александр Попов (1949) DVDRip от New-Team

14 | 1

1.46 ГБ

В этой теме нет новых непрочитанных сообщений. Александр Попов (1949) DVDRip от New-Team

3 | 0

745.34 МБ

В этой теме нет новых непрочитанных сообщений. Александр Попов (1949) DVDRip-AVC от New-Team

25 | 0

1.46 ГБ

В этой теме нет новых непрочитанных сообщений. Константин Заслонов (1949) DVDRip от New-Team

20 | 3

1.09 ГБ




Вы не можете начинать темы
Вы не можете отвечать на сообщения
Вы не можете редактировать свои сообщения
Вы не можете удалять свои сообщения
Вы не можете добавлять вложения

Перейти:  
Для Мосгорсуда, Роскомнадзора и рекламодателей: mosgorsud-torrent[собачка]yandex.ru
 Вход
ppkBB3cker v.2 © 2008-2014 @ PPK
[ Time : 0.057s | 15 Queries | GZIP : Off ]

Торрент трекер RUTOR.IN, Не можете зайти на rutor.org? Какой новый адрес рутор? Какое зеркало рутор? Не работает rutor.org и зеркала? Тогда наш торрент специально для вас. Rutor.in неофициальное зеркало rutor. В случае если у Вас заблокирован rutor или вдруг Вы не можете на него зайти, то Вы без труда сможете скачать бесплатно и без рекламы последние новинки кино, игр, сериалов и прочего у нас, на Rutor.in. Не нужно использовать прокси, чтобы зайти на рутор, достаточно воспользоваться нашим ресурсом. Все новые фильмы, игры, сериалы, книги и музыка за 2013 и 2014 годы через торрент бесплатно. Скачивайте фильмы в хорошем качестве, игры для пк, xbox, playstation без регистрации. У нас вы найдете новые Зарубежные сериалы и Русские сериалы 2013, 2014, 2015 годов. Оставайтесь с нами, качайте любимые фильмы, игры, сериалы, книги и музыку.