img image001 image001 image001 image001 image001 image001 image001 image001 image001 image001 image001 image001 image001 image001 image001

Planets Sun Sun Sun
Статистика раздачи
Автор: Nickolas3434 | Размер: 2.77 ГБ | Добавлен: 04 сен 2015
Раздают: 293    Качают: 62
Скачать торрент
Скачать торрент
Описание торрента

СообщениеДобавлено: 04 сен 2015 


Информация о фильме
Название: Сильва
Год выхода: 1981
Жанр: Фильм-оперетта, музыкальный, комедия, экранизация
Режиссер: Ян Фрид
В ролях: Жанна Глебова, Ивар Калныньш, Виталий Соломин, Мария Соломина, Игорь Дмитриев, Татьяна Пилецкая, Михаил Светин, Виктория Горшенина, Павел Кадочников, Рэм Лебедев, Владимир Басов, Пётр Кадочников, Н. Азарова, Александр Афанасьев, Надежда Калинина, Ю. Капица, Андрей Карташов, Елена Соловьева, Н. Слицкая, В. Самойлов, Валерий Смоляков, Георгий Тейх, Александр Чурсин, Нина Алисова, Александр Бахаревский, Елена Цорн, Софья Ялышева, Борис Смолкин, Алексей Стеблянко, Евгения Целовальник
О фильме: Будущий князь, а ныне просто самолюбивый молодой офицер по имени Эдвин и певица Сильва Вареску полюбили друг друга. Эдвин даже готов пойти наперекор воле знатных родителей и жениться - несмотря на неизбежный скандал. Но... В оперетте всегда появляется "но", и всегда не одно. И, тем не менее, цепь недоразумений, радостей, трагедий и разочарований должна прийти к счастливому концу, а искрящаяся музыка Имре Кальмана и блистательная игра советских актеров превращают путь к этому концу в настоящий праздник.
Страна: СССР, Гостелерадио, Ленфильм
Продолжительность: 02:19:16
Перевод: не требуется
Файл
Кодек: MKV
Качество: DVDRip-AVC
Видео: MPEG-4 AVC, 2650 Кбит/с, 688x572@734x572
Звук: AC3, 2 ch, 192 Кбит/с
Сравнение с исходником: http://screenshotcomparison.com/compari ... /picture:0 , Сэмпл

raw [info]: 688x572p 16:15 @ 25/1 fps (cfr)
x264 [info]: using SAR=16/15
x264 [info]: using cpu capabilities: MMX2 SSE2Fast SSSE3 SSE4.2 AVX
x264 [info]: profile High, level 4.1
x264 [info]: frame I:40 Avg QP:15.04 size: 80623
x264 [info]: frame P:572 Avg QP:18.60 size: 31675
x264 [info]: frame B:1889 Avg QP:20.79 size: 7551
==========================================================================================================
Общее
Уникальный идентификатор : 248021144431965966603391076951025350148 (0xBA9722882B388EB48A38399C0F017604)
Полное имя : D:Сильва_1981-DVDRip-AVC.mkv
Формат : Matroska
Версия формата : Version 2
Размер файла : 2,77 Гбайт
Продолжительность : 2 ч. 19 м.
Общий поток : 2844 Кбит/сек
Дата кодирования : UTC 2015-09-03 08:43:28
Программа кодирования : mkvmerge v5.8.0 ('No Sleep / Pillow') built on Sep 2 2012 15:37:04
Библиотека кодирования : libebml v1.2.3 + libmatroska v1.3.0
Видео
Идентификатор : 1
Формат : AVC
Формат/Информация : Advanced Video Codec
Профиль формата : High@L4.1
Параметр CABAC формата : Да
Параметр ReFrames формата : 15 кадров
Идентификатор кодека : V_MPEG4/ISO/AVC
Продолжительность : 2 ч. 19 м.
Битрейт : 2650 Кбит/сек
Ширина : 688 пикселей
Высота : 572 пикселя
Соотношение сторон : 1,283
Режим частоты кадров : Постоянный
Частота кадров : 25,000 кадров/сек
Цветовое пространство : YUV
Субдискретизация насыщенности : 4:2:0
Битовая глубина : 8 бит
Тип развёртки : Прогрессивная
Бит/(Пиксели*Кадры) : 0.269
Размер потока : 2,53 Гбайт (91%)
Библиотека кодирования : x264 core 146 r2538 121396c
Настройки программы : cabac=1 / ref=15 / deblock=1:-2:-2 / analyse=0x3:0x133 / me=umh / subme=10 / psy=1 / psy_rd=0.85:0.05 / mixed_ref=1 / me_range=32 / chroma_me=1 / trellis=2 / 8x8dct=1 / cqm=0 / deadzone=21,11 / fast_pskip=0 / chroma_qp_offset=-3 / threads=12 / lookahead_threads=2 / sliced_threads=0 / nr=0 / decimate=0 / interlaced=0 / bluray_compat=0 / constrained_intra=0 / bframes=8 / b_pyramid=2 / b_adapt=2 / b_bias=0 / direct=3 / weightb=1 / open_gop=0 / weightp=2 / keyint=250 / keyint_min=25 / scenecut=40 / intra_refresh=0 / rc=2pass / mbtree=0 / bitrate=2650 / ratetol=1.0 / qcomp=0.65 / qpmin=0 / qpmax=45 / qpstep=4 / cplxblur=20.0 / qblur=0.5 / ip_ratio=1.40 / pb_ratio=1.30 / aq=1:1.00
Язык : English
Default : Да
Forced : Нет
Основные цвета : BT.601 PAL
Характеристики трансфера : BT.470 System B, BT.470 System G
Коэффициенты матрицы : BT.601
Аудио
Идентификатор : 2
Формат : AC-3
Формат/Информация : Audio Coding 3
Расширение режима : CM (complete main)
Параметр Endianness формата : Big
Идентификатор кодека : A_AC3
Продолжительность : 2 ч. 19 м.
Вид битрейта : Постоянный
Битрейт : 192 Кбит/сек
Каналы : 2 канала
Расположение каналов : Front: L R
Частота : 48,0 КГц
Битовая глубина : 16 бит
Метод сжатия : С потерями
Размер потока : 191 Мбайт (7%)
Язык : Russian
Default : Да
Forced : Нет

Релиз от:
Автор релиза:



   Похожие торренты   Торрент   Размер 
В этой теме нет новых непрочитанных сообщений. Сильва (1981) DVDRip

163 | 7

2.19 ГБ

В этой теме нет новых непрочитанных сообщений. Карнавал (1981) DVDRip-AVC от ExKinoRay

92 | 13

3.29 ГБ

В этой теме нет новых непрочитанных сообщений. Прощание (1981) DVDRip-AVC от ExKinoRay

96 | 11

2.34 ГБ

В этой теме нет новых непрочитанных сообщений. Шестой (1981) DVDRip-AVC от ExKinoRay

250 | 18

1.83 ГБ

В этой теме нет новых непрочитанных сообщений. Агония (1981) DVDRip-AVC от ExKinoRay

109 | 4

2.88 ГБ

В этой теме нет новых непрочитанных сообщений. Ответный ход (1981) DVDRip от ExKinoRay

38 | 4

1.37 ГБ

В этой теме нет новых непрочитанных сообщений. Цыганское счастье (1981) DVDRip-AVC от ExKinoRay

47 | 13

1.6 ГБ




Вы не можете начинать темы
Вы не можете отвечать на сообщения
Вы не можете редактировать свои сообщения
Вы не можете удалять свои сообщения
Вы не можете добавлять вложения

Перейти:  
Для Мосгорсуда, Роскомнадзора и рекламодателей: mosgorsud-torrent[собачка]yandex.ru
 Вход
ppkBB3cker v.2 © 2008-2014 @ PPK
[ Time : 0.050s | 16 Queries | GZIP : Off ]

Торрент трекер RUTOR.IN, Не можете зайти на rutor.org? Какой новый адрес рутор? Какое зеркало рутор? Не работает rutor.org и зеркала? Тогда наш торрент специально для вас. Rutor.in неофициальное зеркало rutor. В случае если у Вас заблокирован rutor или вдруг Вы не можете на него зайти, то Вы без труда сможете скачать бесплатно и без рекламы последние новинки кино, игр, сериалов и прочего у нас, на Rutor.in. Не нужно использовать прокси, чтобы зайти на рутор, достаточно воспользоваться нашим ресурсом. Все новые фильмы, игры, сериалы, книги и музыка за 2013 и 2014 годы через торрент бесплатно. Скачивайте фильмы в хорошем качестве, игры для пк, xbox, playstation без регистрации. У нас вы найдете новые Зарубежные сериалы и Русские сериалы 2013, 2014, 2015 годов. Оставайтесь с нами, качайте любимые фильмы, игры, сериалы, книги и музыку.