img image001 image001 image001 image001 image001 image001 image001 image001 image001 image001 image001 image001 image001 image001 image001

Planets Sun Sun Sun
Статистика раздачи
Автор: Nickolas3434 | Размер: 27.25 ГБ | Добавлен: 05 сен 2015
Раздают: 235    Качают: 103
Скачать торрент
Скачать торрент
Описание торрента

СообщениеДобавлено: 05 сен 2015 


Информация о фильме
Оригинальное название: 9 Рота
Год выпуска: 2005
Жанр: Боевик, драма, военный, история, реальные события
Выпущено: Россия, Финляндия, Украина, Art Pictures Group, Канал 1+1, Finnish Film Foundation, MRP Matila Rohr Productions Oy, Продюсерская компания "Слово", Канал СТС, Украинская Медийная Группа, Yleisradio
Режиссер: Фёдор Бондарчук
В ролях: Алексей Чадов, Константин Крюков, Иван Кокорин, Михаил Евланов, Иван Николаев, Михаил Пореченков, Фёдор Бондарчук, Дмитрий Мухамадеев, Ирина Рахманова, Алексей Кравченко, Александр Баширов, Михаил Ефремов, Станислав Говорухин, Андрей Краско, Александр Лыков, Алексей Серебряков, Денис Мошкин, Александр Кучеренко, Светлана Иванова, Артур Смольянинов, Артём Михалков, Сослан Фидаров, Амаду Мамадаков, Александр Шейн (II), Олесь Кацион, Карен Мартиросян, Марат Гудиев, Евгений Арутюнян
О фильме: СССР. Действие происходит в 1988 и 1989 годах, за несколько месяцев до полного вывода советских войск из Афганистана. Семеро призывников, после нескольких месяцев адской подготовки в «учебке» под командованием беспощадного старшины, попадают в горнило афганской кампании. Группа десантников, бойцами которой стали наши герои, получает задание командования — занять высоту и держать ее до прохождения колонны…

Файл
Качество: BDRemux (1080p)
Видео: MPEG-4 AVC, 24824 Кбит/с, 1920x1080, 23.976 кадр/с
Аудио: Русский (AC3, 6 ch, 640 Кбит/с), (DTS HD HR, 8 ch, 2559 Кбит/с)
Размер: 27.25 ГБ
Продолжительность: 02:19:12
Язык: Русский
Субтитры: Русские, английские
За исходник, большое спасибо HDClub
Сохранены оригинальные чаптеры как на Blu-Ray.
Общее
Уникальный идентификатор : 239415160294517033470487315870417135119 (0xB41DAEC12D53E8CF908A08F15ED7A60F)
Полное имя : D:Загрузки9.Rota.2005.BDRemux.(1080p).ExKinoRay.mkv
Формат : Matroska
Версия формата : Version 2
Размер файла : 27,3 Гбайт
Продолжительность : 2 ч. 19 м.
Режим общего битрейта : Переменный
Общий поток : 28,0 Мбит/сек
Название фильма : 9 рота.2005.Сборка: ollan
Дата кодирования : UTC 2015-09-04 09:55:56
Программа кодирования : mkvmerge v5.6.0 ('Kenya Kane') built on May 27 2012 16:44:04
Библиотека кодирования : libebml v1.2.3 + libmatroska v1.3.0
Видео
Идентификатор : 1
Формат : AVC
Формат/Информация : Advanced Video Codec
Профиль формата : High@L4.1
Параметр CABAC формата : Да
Параметр ReFrames формата : 4 кадра
Идентификатор кодека : V_MPEG4/ISO/AVC
Продолжительность : 2 ч. 19 м.
Вид битрейта : Переменный
Битрейт : 24,3 Мбит/сек
Максимальный битрейт : 32,0 Мбит/сек
Ширина : 1920 пикселей
Высота : 1080 пикселей
Соотношение сторон : 16:9
Режим частоты кадров : Постоянный
Частота кадров : 23,976 кадра/сек
Стандарт вещания : NTSC
Цветовое пространство : YUV
Субдискретизация насыщенности : 4:2:0
Битовая глубина : 8 бит
Тип развёртки : Прогрессивная
Бит/(Пиксели*Кадры) : 0.488
Размер потока : 23,6 Гбайт (87%)
Язык : Russian
Default : Да
Forced : Нет
Основные цвета : BT.709
Характеристики трансфера : BT.709
Коэффициенты матрицы : BT.709
Аудио #1
Идентификатор : 2
Формат : AC-3
Формат/Информация : Audio Coding 3
Расширение режима : CM (complete main)
Параметр Endianness формата : Big
Идентификатор кодека : A_AC3
Продолжительность : 2 ч. 19 м.
Вид битрейта : Постоянный
Битрейт : 640 Кбит/сек
Каналы : 6 каналов
Расположение каналов : Front: L C R, Side: L R, LFE
Частота : 48,0 КГц
Битовая глубина : 16 бит
Метод сжатия : С потерями
Размер потока : 637 Мбайт (2%)
Язык : Russian
Default : Да
Forced : Нет
Аудио #2
Идентификатор : 3
Формат : DTS
Формат/Информация : Digital Theater Systems
Профиль формата : HRA / Core
Режим : 16
Параметр Endianness формата : Big
Идентификатор кодека : A_DTS
Продолжительность : 2 ч. 19 м.
Вид битрейта : Постоянный
Битрейт : 2559 Кбит/сек / 1509 Кбит/сек
Каналы : 8 каналов / 6 каналов
Расположение каналов : Front: L C R, Side: L R, Back: L R, LFE / Front: L C R, Side: L R, LFE
Частота : 48,0 КГц
Битовая глубина : 16 бит
Метод сжатия : С потерями
Размер потока : 2,49 Гбайт (9%)
Язык : Russian
Default : Нет
Forced : Нет
Текст #1
Идентификатор : 4
Формат : UTF-8
Идентификатор кодека : S_TEXT/UTF8
Идентификатор кодека/Информация : UTF-8 Plain Text
Заголовок : Full
Язык : Russian
Default : Нет
Forced : Нет
Текст #2
Идентификатор : 5
Формат : UTF-8
Идентификатор кодека : S_TEXT/UTF8
Идентификатор кодека/Информация : UTF-8 Plain Text
Заголовок : Full
Язык : English
Default : Нет
Forced : Нет
Меню
00:00:00.000 : ru:Chapter 01
00:10:04.395 : ru:Chapter 02
00:26:26.835 : ru:Chapter 03
00:37:27.578 : ru:Chapter 04
00:46:48.055 : ru:Chapter 05
00:59:00.495 : ru:Chapter 06
01:11:37.751 : ru:Chapter 07
01:23:07.983 : ru:Chapter 08
01:37:39.687 : ru:Chapter 09
01:48:14.321 : ru:Chapter 10
01:55:44.604 : ru:Chapter 11
02:14:44.910 : ru:Chapter 12
02:19:12.719 : ru:Chapter 13





Релиз от: Сборка:



   Похожие торренты   Торрент   Размер 
В этой теме нет новых непрочитанных сообщений. 9 рота / The 9th Company (2005) BDRip 1080p | GER Transfer

254 | 122

11.55 ГБ

В этой теме нет новых непрочитанных сообщений. РЭД 2 / Red 2 (2013) BDRemux 1080p от ExKinoRay | US-Transfer | Лицензия

25 | 7

30.47 ГБ

В этой теме нет новых непрочитанных сообщений. Я, Франкенштейн / I, Frankenstein (2014) BDRemux 1080p от ExKinoRay | US Transfer | Лицензия

175 | 22

22.71 ГБ

В этой теме нет новых непрочитанных сообщений. Я, Франкенштейн 2D, 3D / I, Frankenstein 2D, 3D (2014) BDRemux 1080p от ExKinoRay | 3D-Video | US Transfer | Лицензия

86 | 21

34.19 ГБ

В этой теме нет новых непрочитанных сообщений. Экстрасенсы / Solace (2015) BDRemux 1080p от ExKinoRay | RUS-Transfer | Open Mate | Лицензия

39 | 23

16.38 ГБ

В этой теме нет новых непрочитанных сообщений. Любовь не по размеру / Un homme à la hauteur (2016) BDRemux 1080p от ExKinoRay | RUS Transfer | Лицензия

16 | 1

15.53 ГБ

В этой теме нет новых непрочитанных сообщений. Хранитель луны / Mune, le gardien de la lune (2014) BDRemux 1080p от ExKinoRay | ITA Transfer | Лицензия

132 | 68

20.68 ГБ




Вы не можете начинать темы
Вы не можете отвечать на сообщения
Вы не можете редактировать свои сообщения
Вы не можете удалять свои сообщения
Вы не можете добавлять вложения

Перейти:  
Для Мосгорсуда, Роскомнадзора и рекламодателей: mosgorsud-torrent[собачка]yandex.ru
 Вход
ppkBB3cker v.2 © 2008-2014 @ PPK
[ Time : 0.037s | 17 Queries | GZIP : Off ]

Торрент трекер RUTOR.IN, Не можете зайти на rutor.org? Какой новый адрес рутор? Какое зеркало рутор? Не работает rutor.org и зеркала? Тогда наш торрент специально для вас. Rutor.in неофициальное зеркало rutor. В случае если у Вас заблокирован rutor или вдруг Вы не можете на него зайти, то Вы без труда сможете скачать бесплатно и без рекламы последние новинки кино, игр, сериалов и прочего у нас, на Rutor.in. Не нужно использовать прокси, чтобы зайти на рутор, достаточно воспользоваться нашим ресурсом. Все новые фильмы, игры, сериалы, книги и музыка за 2013 и 2014 годы через торрент бесплатно. Скачивайте фильмы в хорошем качестве, игры для пк, xbox, playstation без регистрации. У нас вы найдете новые Зарубежные сериалы и Русские сериалы 2013, 2014, 2015 годов. Оставайтесь с нами, качайте любимые фильмы, игры, сериалы, книги и музыку.