img image001 image001 image001 image001 image001 image001 image001 image001 image001 image001 image001 image001 image001 image001 image001

Planets Sun Sun Sun
Статистика раздачи
Автор: Nickolas3434 | Размер: 700.89 МБ | Добавлен: 05 сен 2015
Раздают: 212    Качают: 40
Скачать торрент
Скачать торрент
Описание торрента

СообщениеДобавлено: 05 сен 2015 


Информация о фильме
Название: Полярный рейс
Год выхода: 2013
Жанр: Комедия
Режиссер: Сергей Чекалов
В ролях: Егор Бероев, Юлия Снигирь, Дмитрий Нагиев, Татьяна Орлова, Анна Семенович, Михаил Тарабукин, Кирилл Жандаров, Юлия Куварзина, Поля Полякова, Юлия Галкина
О фильме:
Иногда расстояние, карьера и работа разлучают людей навсегда. А по-настоящему родных — только на миг, сколько бы он ни длился. Может случиться, что симпатичный пушистый амулет сведёт вместе героев и заставит одних проявить юмор, благородство, преданность и взаимопомощь, других — быть просто смешными, глупыми и опасными… Пройдя через разлуку, череду преград, испытаний и искушений, волшебство любви должно победить!
Страна: Украина
Студия: Wise Vision
Продолжительность: 01:28:09
Перевод: Не требуется
Файл
Кодек: XviD (AVI)
Качество: HDTVRip
Видео: 688x304 (2,25:1), 25 fps, XviD build 73, 975 kbps avg, 0.186 bit/pixel
Звук: 48 kHz, MPEG Layer 3, 2 ch, 128.00 kbps avg
Общее
Полное имя : Poljarnij.Rejs.2013.XviD.HDTVRip.by.GenerallFilm.avi
Формат : AVI
Формат/Информация : Audio Video Interleave
Размер файла : 701 Мбайт
Продолжительность : 1 ч. 28 м.
Общий поток : 1112 Кбит/сек
Программа кодирования : VirtualDubMod 1.5.10.3 | www.virtualdub-fr.org || (build 2550/release)
Библиотека кодирования : VirtualDubMod build 2550/release
Видео
Идентификатор : 0
Формат : MPEG-4 Visual
Профиль формата : Advanced Simple@L5
Параметр BVOP формата : 1
Параметр QPel формата : Нет
Параметр GMC формата : Без точки перехода
Параметр матрицы формата : Выборочная
Идентификатор кодека : XVID
Идентификатор кодека/Подсказка : XviD
Продолжительность : 1 ч. 28 м.
Битрейт : 975 Кбит/сек
Ширина : 688 пикселей
Высота : 304 пикселя
Соотношение сторон : 2,25:1
Частота кадров : 25,000 кадров/сек
Цветовое пространство : YUV
Субдискретизация насыщенности : 4:2:0
Битовая глубина : 8 бит
Тип развёртки : Прогрессивная
Метод сжатия : С потерями
Бит/(Пиксели*Кадры) : 0.186
Размер потока : 614 Мбайт (88%)
Библиотека кодирования : XviD 73
Аудио
Идентификатор : 1
Формат : MPEG Audio
Версия формата : Version 1
Профиль формата : Layer 3
Идентификатор кодека : 55
Идентификатор кодека/Подсказка : MP3
Продолжительность : 1 ч. 28 м.
Вид битрейта : Постоянный
Битрейт : 128 Кбит/сек
Каналы : 2 канала
Частота : 48,0 КГц
Метод сжатия : С потерями
Размер потока : 80,6 Мбайт (12%)
Выравнивание : Соединение по промежуткам
Продолжительность промежутка : 40 мс. (1,00 видеокадр)
Время предзагрузки промежутка : 504 мс.
Библиотека кодирования : LAME3.99r
Настройки программы : -m s -V 4 -q 0 -lowpass 17 -b 128









Релиз от:



   Похожие торренты   Торрент   Размер 
В этой теме нет новых непрочитанных сообщений. Полярный рейс (2013) DVDRip-AVC

666 | 142

1.45 ГБ

В этой теме нет новых непрочитанных сообщений. Полярный рейс (2013) DVDRip | Лицензия

249 | 12

1.37 ГБ

В этой теме нет новых непрочитанных сообщений. Полярный рейс (2013) WEB-DLRip 720p

148 | 7

1.57 ГБ

В этой теме нет новых непрочитанных сообщений. Полярный рейс (2013) DVDRip от ivandubskoj

415 | 78

1.46 ГБ

В этой теме нет новых непрочитанных сообщений. Полярный рейс (2013) DVDRip | Лицензия

138 | 9

697.23 МБ

В этой теме нет новых непрочитанных сообщений. Полярный рейс (2013) DVD5 от New-Team | Лицензия

378 | 90

3.5 ГБ

В этой теме нет новых непрочитанных сообщений. Полярный приз (2013) HDTVRip от -=HD-NET=-

88 | 19

1.04 ГБ




Вы не можете начинать темы
Вы не можете отвечать на сообщения
Вы не можете редактировать свои сообщения
Вы не можете удалять свои сообщения
Вы не можете добавлять вложения

Перейти:  
Для Мосгорсуда, Роскомнадзора и рекламодателей: mosgorsud-torrent[собачка]yandex.ru
 Вход
ppkBB3cker v.2 © 2008-2014 @ PPK
[ Time : 0.631s | 15 Queries | GZIP : Off ]

cron