img image001 image001 image001 image001 image001 image001 image001 image001 image001 image001 image001 image001 image001 image001 image001

Planets Sun Sun Sun
Статистика раздачи
Автор: Nickolas3434 | Размер: 1.18 ГБ | Добавлен: 06 сен 2015
Раздают: 114    Качают: 10
Скачать торрент
Скачать торрент
Описание торрента

СообщениеДобавлено: 06 сен 2015 


Информация о фильме
Название: Девушка спешит на свидание
Год выхода: 1936
Жанр: Кинокомедия
Продолжительность: 01:01:41
Режиссер: Михаил Вернер, Сергей Сиделёв
В ролях: Борис Петкер,Михаил Ростовцев,Мария Барабанова,Е. Плюто,Вера Стрешнева,Андрей Костричкин,Александр Бениаминов,Г. Арнольд,Иона Бий-Бродский,Степан Каюков
О фильме: Действие фильма происходит в 30-е годы. Застенчивый интеллигент Федоров и хитрый цирковой артист Гуров, отправившись отдыхать на юг, стали жертвами ошибки на почте — девушка, отправлявшая документы, спешила на свидание и перепутала конверты, в которых лежали паспорта героев фильма, что повлекло за собой ряд комедийных недоразумений.
В 1987 году фильм был полностью переозвучен, за исключением песни в исполнении Ефрема Флакса.
Композитор — Исаак Дунаевский
Автор текстов песен — Василий Лебедев-Кумач

Качество: DVDRip-AVC
Формат: MKV
Видео кодек: H264
Аудио кодек: AC3
Видео: MPEG4 Video (H264), 720x560, 25fps, 2300 Kbps
Аудио: Dolby AC3, 48000 Hz, 2ch, 448 kbps
Сэмпл
General
Unique ID : 242197734733101122889907840023523250273 (0xB6359644397A4B289E302B77B2805061)
Complete name : F:Torrent 21936.Devushka.speshit.renta23.mkv
Format : Matroska
Format version : Version 4 / Version 2
File size : 1.18 GiB
Duration : 1h 1mn
Overall bit rate : 2 750 Kbps
Movie name : 1936 Девушка спешит на свидание / renta23
Encoded date : UTC 2015-09-03 18:12:11
Writing application : mkvmerge v8.1.0 ('Psychedelic Postcard') 32bit
Writing library : libebml v1.3.1 + libmatroska v1.4.2
DURATION : 01:01:41.184000000
NUMBER_OF_FRAMES : 115662
NUMBER_OF_BYTES : 207266304
_STATISTICS_WRITING_APP : mkvmerge v8.1.0 ('Psychedelic Postcard') 32bit
_STATISTICS_WRITING_DATE_UTC : 2015-09-03 18:12:11
_STATISTICS_TAGS : BPS DURATION NUMBER_OF_FRAMES NUMBER_OF_BYTES
Video
ID : 1
Format : AVC
Format/Info : Advanced Video Codec
Format profile : High@L4.1
Format settings, CABAC : Yes
Format settings, ReFrames : 7 frames
Codec ID : V_MPEG4/ISO/AVC
Duration : 1h 1mn
Bit rate : 2 300 Kbps
Width : 720 pixels
Height : 560 pixels
Display aspect ratio : 1.286
Frame rate mode : Constant
Frame rate : 25.000 fps
Color space : YUV
Chroma subsampling : 4:2:0
Bit depth : 8 bits
Scan type : Progressive
Bits/(Pixel*Frame) : 0.228
Stream size : 992 MiB (82%)
Title : 1936 Девушка спешит на свидание
Writing library : x264 core 146 r2538 121396c
Encoding settings : cabac=1 / ref=8 / deblock=1:-1:-1 / analyse=0x3:0x113 / me=umh / subme=11 / psy=1 / psy_rd=1.15:0.25 / mixed_ref=1 / me_range=32 / chroma_me=1 / trellis=2 / 8x8dct=1 / cqm=0 / deadzone=21,11 / fast_pskip=0 / chroma_qp_offset=-4 / threads=12 / lookahead_threads=3 / sliced_threads=0 / nr=0 / decimate=0 / interlaced=0 / bluray_compat=0 / constrained_intra=0 / bframes=16 / b_pyramid=1 / b_adapt=2 / b_bias=0 / direct=3 / weightb=1 / open_gop=0 / weightp=2 / keyint=250 / keyint_min=25 / scenecut=40 / intra_refresh=0 / rc_lookahead=50 / rc=2pass / mbtree=1 / bitrate=2300 / ratetol=1.0 / qcomp=0.60 / qpmin=0 / qpmax=69 / qpstep=4 / cplxblur=20.0 / qblur=0.5 / vbv_maxrate=14000 / vbv_bufsize=14000 / nal_hrd=none / filler=0 / ip_ratio=1.40 / aq=1:1.00
Language : Russian
Default : Yes
Forced : No
Audio
ID : 2
Format : AC-3
Format/Info : Audio Coding 3
Mode extension : CM (complete main)
Format settings, Endianness : Big
Codec ID : A_AC3
Duration : 1h 1mn
Bit rate mode : Constant
Bit rate : 448 Kbps
Channel(s) : 2 channels
Channel positions : Front: L R
Sampling rate : 48.0 KHz
Bit depth : 16 bits
Compression mode : Lossy
Stream size : 198 MiB (16%)
Language : Russian
Default : Yes
Forced : No
Menu
00:00:00.000 : en:Chapter 01
00:03:24.480 : en:Chapter 02
00:08:49.000 : en:Chapter 03
00:16:32.400 : en:Chapter 04
00:33:59.960 : en:Chapter 05
00:37:20.160 : en:Chapter 06
00:41:40.720 : en:Chapter 07
00:52:42.560 : en:Chapter 08
00:57:42.920 : en:Chapter 09





   Похожие торренты   Торрент   Размер 
В этой теме нет новых непрочитанных сообщений. Девушка спешит на свидание (1936) VHSRip от Киномагия

6 | 4

515.16 МБ

В этой теме нет новых непрочитанных сообщений. Богемская девушка / The Bohemian Girl (1936) DVDRip | L1

18 | 3

1.01 ГБ

В этой теме нет новых непрочитанных сообщений. Свидание в Бре / Свидание в Брэ / Rendez-vous à Bray (1971) DVDRip от pro100shara

142 | 132

1.58 ГБ

В этой теме нет новых непрочитанных сообщений. Немецкий еженедельник 1936-1945 гг / A Newsreel History of The Third Reich - Die Deutsche Wochenschau (1936-1945) DVDRip

2 | 33

23.24 ГБ

В этой теме нет новых непрочитанных сообщений. Посейдон спешит на помощь (1977) DVDRip от Киномагия

13 | 21

1.37 ГБ

В этой теме нет новых непрочитанных сообщений. Коломбо: Стивен Спилберг спешит на помощь / Columbo: Mind Over Mayhem (1974) DVDRip от Киномагия l P2

213 | 6

1.15 ГБ

В этой теме нет новых непрочитанных сообщений. Свидание со звездой / Выиграй свидание с Тедом Хамильтоном / Win a Date with Tad Hamilton (2004) HDTVRip-AVC от NovaLan

44 | 13

2.2 ГБ




Вы не можете начинать темы
Вы не можете отвечать на сообщения
Вы не можете редактировать свои сообщения
Вы не можете удалять свои сообщения
Вы не можете добавлять вложения

Перейти:  
Для Мосгорсуда, Роскомнадзора и рекламодателей: mosgorsud-torrent[собачка]yandex.ru
 Вход
ppkBB3cker v.2 © 2008-2014 @ PPK
[ Time : 1.142s | 14 Queries | GZIP : On ]

Торрент трекер RUTOR.IN, Не можете зайти на rutor.org? Какой новый адрес рутор? Какое зеркало рутор? Не работает rutor.org и зеркала? Тогда наш торрент специально для вас. Rutor.in неофициальное зеркало rutor. В случае если у Вас заблокирован rutor или вдруг Вы не можете на него зайти, то Вы без труда сможете скачать бесплатно и без рекламы последние новинки кино, игр, сериалов и прочего у нас, на Rutor.in. Не нужно использовать прокси, чтобы зайти на рутор, достаточно воспользоваться нашим ресурсом. Все новые фильмы, игры, сериалы, книги и музыка за 2013 и 2014 годы через торрент бесплатно. Скачивайте фильмы в хорошем качестве, игры для пк, xbox, playstation без регистрации. У нас вы найдете новые Зарубежные сериалы и Русские сериалы 2013, 2014, 2015 годов. Оставайтесь с нами, качайте любимые фильмы, игры, сериалы, книги и музыку.