img image001 image001 image001 image001 image001 image001 image001 image001 image001 image001 image001 image001 image001 image001 image001

Planets Sun Sun Sun
Статистика раздачи
Автор: Nickolas3434 | Размер: 1.51 ГБ | Добавлен: 07 сен 2015
Раздают: 55    Качают: 18
Скачать торрент
Скачать торрент
Описание торрента

СообщениеДобавлено: 07 сен 2015 


Информация о фильме
Название: По главной улице с оркестром
Год выхода: 1986
Жанр: Мюзикл, мелодрама, комедия
Режиссер: Петр Тодоровский
В ролях: Олег Борисов, Лидия Федосеева-Шукшина, Марина Зудина, Валентин Гафт, Игорь Костолевский, Валентина Теличкина, Олег Меньшиков, Людмила Максакова, Александр Лазарев, Светлана Немоляева
О фильме: Такое бывает, наверное, у каждого: вдруг захочется круто изменить свою судьбу, начать «с чистого листа», не размениваться на пустяки, а шагать «по главной улице». Герой фильма не ограничивается подобными размышлениями, он решает действовать: уходит со службы, покидает семью…
Страна: СССР
Продолжительность: 01:28:27
Перевод: не требуется
Файл
Кодек: MKV
Качество: DVDRip-AVC
Видео: MPEG-4, 2250 Кбит/с, 704x568@750x568
Звук: AC3, 2 ch, 192 Кбит/с

Общее
Уникальный идентификатор : 200177827921989807882861182735606492420 (0x9698D8E8A2AE18A5BA77A226886E2D04)
Полное имя : D:По главной улице с оркестром_1986-DVDRip-AVC.mkv
Формат : Matroska
Версия формата : Version 2
Размер файла : 1,51 Гбайт
Продолжительность : 1 ч. 28 м.
Общий поток : 2445 Кбит/сек
Дата кодирования : UTC 2015-09-06 17:49:47
Программа кодирования : mkvmerge v5.8.0 ('No Sleep / Pillow') built on Sep 2 2012 15:37:04
Библиотека кодирования : libebml v1.2.3 + libmatroska v1.3.0
Видео
Идентификатор : 1
Формат : AVC
Формат/Информация : Advanced Video Codec
Профиль формата : High@L4.1
Параметр CABAC формата : Да
Параметр ReFrames формата : 15 кадров
Идентификатор кодека : V_MPEG4/ISO/AVC
Продолжительность : 1 ч. 28 м.
Битрейт : 2250 Кбит/сек
Ширина : 704 пикселя
Высота : 568 пикселей
Соотношение сторон : 4:3
Соотношение сторон в оригинале : 4:3
Режим частоты кадров : Постоянный
Частота кадров : 25,000 кадров/сек
Цветовое пространство : YUV
Субдискретизация насыщенности : 4:2:0
Битовая глубина : 8 бит
Тип развёртки : Прогрессивная
Бит/(Пиксели*Кадры) : 0.225
Размер потока : 1,36 Гбайт (90%)
Библиотека кодирования : x264 core 146 r2538 121396c
Настройки программы : cabac=1 / ref=15 / deblock=1:-2:-2 / analyse=0x3:0x133 / me=umh / subme=10 / psy=1 / psy_rd=1.05:0.15 / mixed_ref=1 / me_range=32 / chroma_me=1 / trellis=2 / 8x8dct=1 / cqm=0 / deadzone=21,11 / fast_pskip=0 / chroma_qp_offset=-3 / threads=12 / lookahead_threads=3 / sliced_threads=0 / nr=0 / decimate=0 / interlaced=0 / bluray_compat=0 / constrained_intra=0 / bframes=10 / b_pyramid=2 / b_adapt=2 / b_bias=0 / direct=3 / weightb=1 / open_gop=0 / weightp=2 / keyint=250 / keyint_min=25 / scenecut=40 / intra_refresh=0 / rc=2pass / mbtree=0 / bitrate=2250 / ratetol=1.0 / qcomp=0.65 / qpmin=0 / qpmax=45 / qpstep=4 / cplxblur=20.0 / qblur=0.5 / ip_ratio=1.40 / pb_ratio=1.30 / aq=1:1.00
Язык : English
Default : Да
Forced : Нет
Основные цвета : BT.601 PAL
Характеристики трансфера : BT.470 System B, BT.470 System G
Коэффициенты матрицы : BT.601
Аудио
Идентификатор : 2
Формат : AC-3
Формат/Информация : Audio Coding 3
Расширение режима : CM (complete main)
Параметр Endianness формата : Big
Идентификатор кодека : A_AC3
Продолжительность : 1 ч. 28 м.
Вид битрейта : Постоянный
Битрейт : 192 Кбит/сек
Каналы : 2 канала
Расположение каналов : Front: L R
Частота : 48,0 КГц
Битовая глубина : 16 бит
Метод сжатия : С потерями
Размер потока : 121 Мбайт (8%)
Язык : Russian
Default : Да
Forced : Нет

Релиз от:
Автор релиза:



   Похожие торренты   Торрент   Размер 
В этой теме нет новых непрочитанных сообщений. Убийства на улице Морг / The Murders in the Rue Morgue (1986) DVDRip от Odyzic и MyWorldFilm | P

14 | 3

1.38 ГБ

В этой теме нет новых непрочитанных сообщений. Соло для слона с оркестром (1975) DVDRip

68 | 4

1.37 ГБ

В этой теме нет новых непрочитанных сообщений. Соло для пистолета с оркестром [01-12 из 12] (2008) DVDRip

45 | 9

5.45 ГБ

В этой теме нет новых непрочитанных сообщений. Извне / From Beyond (1986) DVDRip от ExKinoRay

3 | 2

1.37 ГБ

В этой теме нет новых непрочитанных сообщений. Чудо на 34-й улице / Miracle on 34th Street (1994) BDRip-AVC от ExKinoRay

23 | 3

3.05 ГБ

В этой теме нет новых непрочитанных сообщений. Весна на Заречной улице (1956) HDTVRip-AVC от ExKinoRay | Цветная версия

576 | 23

4.05 ГБ

В этой теме нет новых непрочитанных сообщений. Сборник - По улице мостовой. Русские песни (1998) MP3 от BestSound ExKinoRay

158 | 65

140.48 МБ




Вы не можете начинать темы
Вы не можете отвечать на сообщения
Вы не можете редактировать свои сообщения
Вы не можете удалять свои сообщения
Вы не можете добавлять вложения

Перейти:  
Для Мосгорсуда, Роскомнадзора и рекламодателей: mosgorsud-torrent[собачка]yandex.ru
 Вход
ppkBB3cker v.2 © 2008-2014 @ PPK
[ Time : 0.143s | 16 Queries | GZIP : Off ]

cron