img image001 image001 image001 image001 image001 image001 image001 image001 image001 image001 image001 image001 image001 image001 image001

Planets Sun Sun Sun
Статистика раздачи
Автор: Nickolas3434 | Размер: 745.54 МБ | Добавлен: 08 сен 2015
Раздают: 0    Качают: 11
Скачать торрент
Скачать торрент
Описание торрента

СообщениеДобавлено: 08 сен 2015 


Информация о фильме
Название: Посторонний
Год выхода: 2007
Жанр: Драма
Режиссер: Александр Котт
В ролях: Андрей Филиппак, Анастасия Мельникова, Виктория Исакова, Даниил Спиваковский, Митя Лабуш, Мария Буравлева, Владимир Носик, Тимофей Трибунцев, Светлана Чуйкина
О фильме:
Мужчина около сорока лет приходит в себя в лесу, заваленный в яме ветками, грязный и окровавленный. Блуждая по лесу, он набрел на домик путевой обходчицы Татьяны, которая приютила его. Он ничего не помнит, кто он и что с ним случилось. Татьяна решает называть его Иваном. Между ними возникают близкие отношения. Но вскоре появляется другая женщина - Мария, утверждающая, что она - жена Ивана, которого на самом деле зовут Александр Ремезов…

Страна: Россия
Студия: Кинослово
Продолжительность: 01:35:14
Перевод: Не требуется
Файл
Кодек: XviD
Качество: HDTVRip
Видео: 640x272 (2.35:1), 25 fps, XviD build 73 ~956 kbps avg, 0.22 bit/pixel
Звук: 48 kHz, MPEG Layer 3, 2 ch, ~128.00 kbps avg
Субтитры: Отсутствует
Семпл
General
Complete name : D:Для изготовления рипаPostoronnij.2007.HDTVRip.by shkiper.avi
Format : AVI
Format/Info : Audio Video Interleave
File size : 746 MiB
Duration : 1h 35mn
Overall bit rate : 1 095 Kbps
Writing application : VirtualDubMod 1.5.10.3 | www.virtualdub-fr.org || (build 2550/release)
Writing library : VirtualDubMod build 2550/release
Video
ID : 0
Format : MPEG-4 Visual
Format profile : Advanced Simple@L5
Format settings, BVOP : 1
Format settings, QPel : No
Format settings, GMC : No warppoints
Format settings, Matrix : Custom
Codec ID : XVID
Codec ID/Hint : XviD
Duration : 1h 35mn
Bit rate : 957 Kbps
Width : 640 pixels
Height : 272 pixels
Display aspect ratio : 2.35:1
Frame rate : 25.000 fps
Color space : YUV
Chroma subsampling : 4:2:0
Bit depth : 8 bits
Scan type : Progressive
Compression mode : Lossy
Bits/(Pixel*Frame) : 0.220
Stream size : 652 MiB (87%)
Writing library : XviD 73
Audio
ID : 1
Format : MPEG Audio
Format version : Version 1
Format profile : Layer 3
Mode : Joint stereo
Mode extension : MS Stereo
Codec ID : 55
Codec ID/Hint : MP3
Duration : 1h 35mn
Bit rate mode : Constant
Bit rate : 128 Kbps
Channel(s) : 2 channels
Sampling rate : 48.0 KHz
Compression mode : Lossy
Stream size : 87.2 MiB (12%)
Alignment : Aligned on interleaves
Interleave, duration : 40 ms (1.00 video frame)
Interleave, preload duration : 504 ms
Writing library : LAME3.99r
Encoding settings : -m j -V 4 -q 2 -lowpass 17 -b 128

Релиз от:



   Похожие торренты   Торрент   Размер 
В этой теме нет новых непрочитанных сообщений. Посторонний (2007) HDTVRip от Шкипер

88 | 33

745.84 МБ

В этой теме нет новых непрочитанных сообщений. Посторонний (2007) HDTVRip от Files-x

113 | 18

1.37 ГБ

В этой теме нет новых непрочитанных сообщений. Посторонний (2007) HDTVRip-AVC от Files-x

30 | 3

1.37 ГБ

В этой теме нет новых непрочитанных сообщений. Посторонний (2007) HDTVRip 720p от MediaClub

41 | 12

2.43 ГБ

В этой теме нет новых непрочитанных сообщений. Посторонний (2007) HDTVRip 720p от MediaClub

42 | 6

2.43 ГБ

В этой теме нет новых непрочитанных сообщений. Посторонний (2007) DVDRip от Pasha74

38 | 4

1.26 ГБ

В этой теме нет новых непрочитанных сообщений. Посторонний [01-02 из 02] (2007) SATRip от КинозалSAT

2 | 4

1.37 ГБ




Вы не можете начинать темы
Вы не можете отвечать на сообщения
Вы не можете редактировать свои сообщения
Вы не можете удалять свои сообщения
Вы не можете добавлять вложения

Перейти:  
Для Мосгорсуда, Роскомнадзора и рекламодателей: mosgorsud-torrent[собачка]yandex.ru
 Вход
ppkBB3cker v.2 © 2008-2014 @ PPK
[ Time : 0.033s | 14 Queries | GZIP : Off ]

Торрент трекер RUTOR.IN, Не можете зайти на rutor.org? Какой новый адрес рутор? Какое зеркало рутор? Не работает rutor.org и зеркала? Тогда наш торрент специально для вас. Rutor.in неофициальное зеркало rutor. В случае если у Вас заблокирован rutor или вдруг Вы не можете на него зайти, то Вы без труда сможете скачать бесплатно и без рекламы последние новинки кино, игр, сериалов и прочего у нас, на Rutor.in. Не нужно использовать прокси, чтобы зайти на рутор, достаточно воспользоваться нашим ресурсом. Все новые фильмы, игры, сериалы, книги и музыка за 2013 и 2014 годы через торрент бесплатно. Скачивайте фильмы в хорошем качестве, игры для пк, xbox, playstation без регистрации. У нас вы найдете новые Зарубежные сериалы и Русские сериалы 2013, 2014, 2015 годов. Оставайтесь с нами, качайте любимые фильмы, игры, сериалы, книги и музыку.