img image001 image001 image001 image001 image001 image001 image001 image001 image001 image001 image001 image001 image001 image001 image001

Planets Sun Sun Sun
Статистика раздачи
Автор: Nickolas3434 | Размер: 1.38 ГБ | Добавлен: 09 сен 2015
Раздают: 264    Качают: 16
Скачать торрент
Скачать торрент
Описание торрента

СообщениеДобавлено: 09 сен 2015 


Информация о фильме
Название: Отцы и деды
Год выхода: 1982
Жанр: Комедия
Режиссер: Юрий Егоров
В ролях: Анатолий Папанов, Валентин Смирнитский, Алексей Ясулович, Галина Польских, Людмила Аринина, Лидия Кузнецова, Евгений Лазарев, Николай Трофимов, Вадим Андреев, Николай Мерзликин, Ирина Бобкова, Валентин Брылеев, Николай Горлов, Станислав Коренев, Юрий Маляров, Мария Пискунова
О фильме: Жили-были Луков-дед, Луков-сын и Луков-внук (еще, разумеется, была Лукова-мама, жена Лукова-сына). Дед, которому недалеко до пенсии, остается человеком энергичным и жизнелюбивым. Ему до всего есть дело - в первую очередь, до дел сына и внука. Но когда деду намекают на его преклонный возраст и бесперспективность, заявив, что время его прошло, он решает доказать окружающим, что если у него седина в бороде, бес в ребро стукнет обязательно, и, соответственно, его личная жизнь еще только начинается. И если он захочет, то сможет всё: не только остановить трактор и спрыгнуть с балкона, но даже жениться...
Страна: СССР
Продолжительность: 01:19:13
Перевод: не требуется
Файл
Кодек: MKV
Качество: DVDRip-AVC
Видео: MPEG-4 AVC, 2100 Кбит/с, 706x388@754x388
Звук: AC3, 6 ch, 384 Кбит/с

Общее
Уникальный идентификатор : 247419381979594085395324648274033381194 (0xBA233D5A33CC2C2FB8D87382D7200F4A)
Полное имя : D:Отцы и деды_1982-DVDRip-AVC.mkv
Формат : Matroska
Версия формата : Version 2
Размер файла : 1,38 Гбайт
Продолжительность : 1 ч. 19 м.
Общий поток : 2486 Кбит/сек
Дата кодирования : UTC 2015-09-08 14:57:34
Программа кодирования : mkvmerge v5.8.0 ('No Sleep / Pillow') built on Sep 2 2012 15:37:04
Библиотека кодирования : libebml v1.2.3 + libmatroska v1.3.0
Видео
Идентификатор : 1
Формат : AVC
Формат/Информация : Advanced Video Codec
Профиль формата : High@L4.1
Параметр CABAC формата : Да
Параметр ReFrames формата : 15 кадров
Идентификатор кодека : V_MPEG4/ISO/AVC
Продолжительность : 1 ч. 19 м.
Битрейт : 2100 Кбит/сек
Ширина : 706 пикселей
Высота : 388 пикселей
Соотношение сторон : 1,943
Соотношение сторон в оригинале : 1,941
Режим частоты кадров : Постоянный
Частота кадров : 25,000 кадров/сек
Цветовое пространство : YUV
Субдискретизация насыщенности : 4:2:0
Битовая глубина : 8 бит
Тип развёртки : Прогрессивная
Бит/(Пиксели*Кадры) : 0.307
Размер потока : 1,14 Гбайт (83%)
Библиотека кодирования : x264 core 146 r2538 121396c
Настройки программы : cabac=1 / ref=15 / deblock=1:-2:-2 / analyse=0x3:0x133 / me=umh / subme=10 / psy=1 / psy_rd=1.05:0.15 / mixed_ref=1 / me_range=32 / chroma_me=1 / trellis=2 / 8x8dct=1 / cqm=0 / deadzone=21,11 / fast_pskip=0 / chroma_qp_offset=-3 / threads=12 / lookahead_threads=2 / sliced_threads=0 / nr=0 / decimate=0 / interlaced=0 / bluray_compat=0 / constrained_intra=0 / bframes=8 / b_pyramid=2 / b_adapt=2 / b_bias=0 / direct=3 / weightb=1 / open_gop=0 / weightp=2 / keyint=250 / keyint_min=25 / scenecut=40 / intra_refresh=0 / rc=2pass / mbtree=0 / bitrate=2100 / ratetol=1.0 / qcomp=0.65 / qpmin=0 / qpmax=45 / qpstep=4 / cplxblur=20.0 / qblur=0.5 / ip_ratio=1.40 / pb_ratio=1.30 / aq=1:1.00
Язык : English
Default : Да
Forced : Нет
Основные цвета : BT.601 PAL
Характеристики трансфера : BT.470 System B, BT.470 System G
Коэффициенты матрицы : BT.601
Аудио
Идентификатор : 2
Формат : AC-3
Формат/Информация : Audio Coding 3
Расширение режима : CM (complete main)
Параметр Endianness формата : Big
Идентификатор кодека : A_AC3
Продолжительность : 1 ч. 19 м.
Вид битрейта : Постоянный
Битрейт : 384 Кбит/сек
Каналы : 6 каналов
Расположение каналов : Front: L C R, Side: L R, LFE
Частота : 48,0 КГц
Битовая глубина : 16 бит
Метод сжатия : С потерями
Размер потока : 218 Мбайт (15%)
Язык : Russian
Default : Да
Forced : Нет

Релиз от:
Автор релиза:



   Похожие торренты   Торрент   Размер 
В этой теме нет новых непрочитанных сообщений. Отцы и деды (1982) DVDRip

84 | 11

1.37 ГБ

В этой теме нет новых непрочитанных сообщений. Отцы и деды (1982) DVDRip от KinoZalSat-СССР

40 | 5

1.37 ГБ

В этой теме нет новых непрочитанных сообщений. Инспектор ГАИ (1982) DVDRip-AVC от ExKinoRay

200 | 44

1.7 ГБ

В этой теме нет новых непрочитанных сообщений. Чародеи (1982) DVDRip-AVC от ExKinoRay

1245 | 57

3.26 ГБ

В этой теме нет новых непрочитанных сообщений. День рождения (1982) DVDRip от ExKinoRay

81 | 3

154.56 МБ

В этой теме нет новых непрочитанных сообщений. Сказка странствий (1982) DVDRip от ExKinoRay

126 | 10

1.47 ГБ

В этой теме нет новых непрочитанных сообщений. Возвращение резидента (1982) DVDRip-AVC от ExKinoRay

33 | 3

2.38 ГБ




Вы не можете начинать темы
Вы не можете отвечать на сообщения
Вы не можете редактировать свои сообщения
Вы не можете удалять свои сообщения
Вы не можете добавлять вложения

Перейти:  
Для Мосгорсуда, Роскомнадзора и рекламодателей: mosgorsud-torrent[собачка]yandex.ru
 Вход
ppkBB3cker v.2 © 2008-2014 @ PPK
[ Time : 0.023s | 14 Queries | GZIP : Off ]

Торрент трекер RUTOR.IN, Не можете зайти на rutor.org? Какой новый адрес рутор? Какое зеркало рутор? Не работает rutor.org и зеркала? Тогда наш торрент специально для вас. Rutor.in неофициальное зеркало rutor. В случае если у Вас заблокирован rutor или вдруг Вы не можете на него зайти, то Вы без труда сможете скачать бесплатно и без рекламы последние новинки кино, игр, сериалов и прочего у нас, на Rutor.in. Не нужно использовать прокси, чтобы зайти на рутор, достаточно воспользоваться нашим ресурсом. Все новые фильмы, игры, сериалы, книги и музыка за 2013 и 2014 годы через торрент бесплатно. Скачивайте фильмы в хорошем качестве, игры для пк, xbox, playstation без регистрации. У нас вы найдете новые Зарубежные сериалы и Русские сериалы 2013, 2014, 2015 годов. Оставайтесь с нами, качайте любимые фильмы, игры, сериалы, книги и музыку.